โหลดหนัง HD MINI-HD SUPER-HQ Full-HD 1080p VIP Master Zoom ซูม หนังใหม่ ออนไลน์ มาสเตอร์ ไทย จีน ฝรั่ง การ์ตูน

[ฝรั่ง] Renegades (2017) เรเนเกดส์ ทีมยุทธการล่าโคตรทองใต้สมุทร [Master] [1080p] [พากย์ไทย 2.0 + เสียงอังกฤษ 2.0] [เสียงไทยมาสเตอร์] [ONE2UP]

โหลดหนัง  Renegades (2017) เรเนเกดส์ ทีมยุทธการล่าโคตรทองใต้สมุทร

เรื่องย่อ Renegades (2017) เรเนเกดส์ ทีมยุทธการล่าโคตรทองใต้สมุทร

Renegades หน่วยรบเนวีซีล ที่ได้รับภารกิจลับให้ไปต่อสู้บนพื้นดินแถบยุโรป ไม่นานหลังจากที่ได้ประจำการที่นั่น พวกเขาได้รับรู้ถึงข่าวลือจากชาวบ้านถึงแหล่งขุมทรัพย์มหาศาลที่อยู่ภายใต้ทะเลสาบบอสเนีย พวกเขาจึงตัดสินใจที่จะปฏิบัติภารกิจนอกเหนือคำสั่งเพื่อช่วยเหลือชาวบ้านผู้ที่ควรเป็นเจ้าของสมบัติเหล่านี้ ด้วยการอาสาใช้ยุทธวิธีทางการทหารเพื่อเอาขุมทรัพย์นั้นขึ้นมา แต่พวกเขาก็ต้องเจอกับอุปสรรคเมื่อข้าศึกได้รับรู้ถึงแผนการนี้เช่นกัน พวกเขาจึงเหลือเวลาเพียงไม่ถึง 10 ชั่วโมงเท่านั้น ก่อนที่ข้าศึกจะเข้ามาและเกิดสงครามแย่งชิงสมบัติขึ้น!!!

Complete name : Renegades (2017) .HD1080p.WEB-DL.DD5.1.H264.One2loadup.com.mkv
Format : Matroska
Format version : Version 4
File size : 3.78 GiB
Duration : 1 h 45 min
Overall bit rate : 5 122 kb/s
Movie name : Renegades (2017) .HD1080p.WEB-DL.DD5.1.H264.One2loadup.com
Encoded date : UTC 2018-04-27 23:34:11
Writing application : mkvmerge v7.7.0 (‘Six Voices’) 32bit built on Feb 28 2015 23:23:00
Writing library : libebml v1.3.1 + libmatroska v1.4.2

Video
ID : 1
Format : AVC
Format/Info : Advanced Video Codec
Format profile : [email protected]
Format settings : CABAC / 5 Ref Frames
Format settings, CABAC : Yes
Format settings, ReFrames : 5 frames
Codec ID : V_MPEG4/ISO/AVC
Duration : 1 h 45 min
Bit rate : 4 544 kb/s
Width : 1 916 pixels
Height : 800 pixels
Display aspect ratio : 2.40:1
Frame rate mode : Constant
Frame rate : 23.976 (24000/1001) FPS
Color space : YUV
Chroma subsampling : 4:2:0
Bit depth : 8 bits
Scan type : Progressive
Bits/(Pixel*Frame) : 0.124
Stream size : 3.35 GiB (89%)
Title : Renegades (2017) .HD1080p.WEB-DL.DD5.1.H264.One2loadup.com
Language : English
Default : Yes
Forced : No
Color range : Limited
Color primaries : BT.709
Transfer characteristics : BT.709
Matrix coefficients : BT.709

Audio #1
ID : 2
Format : AC-3
Format/Info : Audio Coding 3
Commercial name : Dolby Digital
Codec ID : A_AC3
Duration : 1 h 45 min
Bit rate mode : Constant
Bit rate : 384 kb/s
Channel(s) : 6 channels
Channel layout : L R C LFE Ls Rs
Sampling rate : 48.0 kHz
Frame rate : 31.250 FPS (1536 SPF)
Bit depth : 16 bits
Compression mode : Lossy
Delay relative to video : -42 ms
Stream size : 290 MiB (7%)
Language : English
Service kind : Complete Main
Default : No
Forced : No

Audio #2
ID : 4
Format : AAC LC
Format/Info : Advanced Audio Codec Low Complexity
Codec ID : A_AAC-2
Duration : 1 h 45 min
Bit rate : 192 kb/s
Channel(s) : 2 channels
Channel layout : L R
Sampling rate : 48.0 kHz
Frame rate : 46.875 FPS (1024 SPF)
Compression mode : Lossy
Delay relative to video : -42 ms
Stream size : 145 MiB (4%)
Title : Thai 2.0
Language : Thai
Default : Yes
Forced : Yes

Text
ID : 3
Format : UTF-8
Codec ID : S_TEXT/UTF8
Codec ID/Info : UTF-8 Plain Text
Duration : 1 h 25 min
Bit rate : 2 b/s
Count of elements : 79
Stream size : 1.67 KiB (0%)
Title : FORCED
Language : English
Default : Yes
Forced : Yes

Menu
00:00:00.000 : en:Chapter 1
00:34:10.091 : en:Chapter 2
01:09:58.906 : en:Chapter 3
01:36:17.359 : en:Chapter 4

DOWNLOAD


PART01 |||| PART02 |||| PART03 |||| PART04

PART01 |||| PART02 |||| PART03 |||| PART04

PART01 |||| PART02 |||| PART03 |||| PART04

PART01 |||| PART02 |||| PART03 |||| PART04


Leave A Reply

Your email address will not be published.

%d bloggers like this: