โหลดหนัง HD MINI-HD SUPER-HQ Full-HD 1080p VIP Master Zoom ซูม หนังใหม่ ออนไลน์ มาสเตอร์ ไทย จีน ฝรั่ง การ์ตูน

[ฝรั่ง] Renegades (2017) เรเนเกดส์ ทีมยุทธการล่าโคตรทองใต้สมุทร [Master] [1080p] [พากย์ไทย 2.0 + เสียงอังกฤษ 2.0] [เสียงไทยมาสเตอร์] [ONE2UP]

0

โหลดหนัง  Renegades (2017) เรเนเกดส์ ทีมยุทธการล่าโคตรทองใต้สมุทร

เรื่องย่อ Renegades (2017) เรเนเกดส์ ทีมยุทธการล่าโคตรทองใต้สมุทร

Renegades หน่วยรบเนวีซีล ที่ได้รับภารกิจลับให้ไปต่อสู้บนพื้นดินแถบยุโรป ไม่นานหลังจากที่ได้ประจำการที่นั่น พวกเขาได้รับรู้ถึงข่าวลือจากชาวบ้านถึงแหล่งขุมทรัพย์มหาศาลที่อยู่ภายใต้ทะเลสาบบอสเนีย พวกเขาจึงตัดสินใจที่จะปฏิบัติภารกิจนอกเหนือคำสั่งเพื่อช่วยเหลือชาวบ้านผู้ที่ควรเป็นเจ้าของสมบัติเหล่านี้ ด้วยการอาสาใช้ยุทธวิธีทางการทหารเพื่อเอาขุมทรัพย์นั้นขึ้นมา แต่พวกเขาก็ต้องเจอกับอุปสรรคเมื่อข้าศึกได้รับรู้ถึงแผนการนี้เช่นกัน พวกเขาจึงเหลือเวลาเพียงไม่ถึง 10 ชั่วโมงเท่านั้น ก่อนที่ข้าศึกจะเข้ามาและเกิดสงครามแย่งชิงสมบัติขึ้น!!!

Complete name : Ready.Player.One.2018.720p.KORSUB.HDRip.x264.AC3.THR2.0.One2loadup.com.mkv
Format : Matroska
Format version : Version 4 / Version 2
File size : 4.36 GiB
Duration : 2 h 19 min
Overall bit rate : 4 456 kb/s
Movie name : Ready.Player.One.2018.720p.KORSUB.HDRip.x264.AC3.THR2.0.One2loadup.com
Encoded date : UTC 2018-05-09 04:31:20
Writing application : mkvmerge v9.9.0 (‘Pick Up’) 64bit
Writing library : libebml v1.3.4 + libmatroska v1.4.5
Cover : Yes
Attachments : cover.jpg

Video
ID : 1
Format : AVC
Format/Info : Advanced Video Codec
Format profile : [email protected]
Format settings : CABAC / 4 Ref Frames
Format settings, CABAC : Yes
Format settings, ReFrames : 4 frames
Codec ID : V_MPEG4/ISO/AVC
Duration : 2 h 19 min
Bit rate : 4 000 kb/s
Width : 1 280 pixels
Height : 534 pixels
Display aspect ratio : 2.40:1
Original display aspect rat : 2.40:1
Frame rate mode : Constant
Frame rate : 30.000 FPS
Color space : YUV
Chroma subsampling : 4:2:0
Bit depth : 8 bits
Scan type : Progressive
Bits/(Pixel*Frame) : 0.195
Stream size : 3.92 GiB (90%)
Title : Ready.Player.One.2018.720p.KORSUB.HDRip.x264.AC3.THR2.0.One2loadup.com
Writing library : x264 core 148 r2795M aaa9aa8
Encoding settings : cabac=1 / ref=4 / deblock=1:0:0 / analyse=0x3:0x113 / me=umh / subme=9 / psy=1 / psy_rd=1.00:0.00 / mixed_ref=1 / me_range=16 / chroma_me=1 / trellis=2 / 8x8dct=1 / cqm=0 / deadzone=21,11 / fast_pskip=1 / chroma_qp_offset=-2 / threads=40 / lookahead_threads=3 / sliced_threads=0 / nr=0 / decimate=1 / interlaced=0 / bluray_compat=0 / constrained_intra=0 / bframes=3 / b_pyramid=2 / b_adapt=2 / b_bias=0 / direct=3 / weightb=1 / open_gop=0 / weightp=2 / keyint=250 / keyint_min=25 / scenecut=40 / intra_refresh=0 / rc_lookahead=50 / rc=abr / mbtree=1 / bitrate=4000 / ratetol=1.0 / qcomp=0.60 / qpmin=0 / qpmax=69 / qpstep=4 / ip_ratio=1.40 / aq=1:1.00
Language : English
Default : Yes
Forced : No

Audio #1
ID : 2
Format : AC-3
Format/Info : Audio Coding 3
Codec ID : A_AC3
Duration : 2 h 19 min
Bit rate mode : Constant
Bit rate : 192 kb/s
Channel(s) : 2 channels
Channel positions : Front: L R
Sampling rate : 48.0 kHz
Frame rate : 31.250 FPS (1536 SPF)
Bit depth : 16 bits
Compression mode : Lossy
Stream size : 192 MiB (4%)
Title : THR 2.0
Language : Thai
Service kind : Complete Main
Default : Yes
Forced : Yes

Audio #2
ID : 3
Format : AAC
Format/Info : Advanced Audio Codec
Format profile : LC
Codec ID : A_AAC-2
Duration : 2 h 19 min
Bit rate : 256 kb/s
Channel(s) : 2 channels
Channel positions : Front: L R
Sampling rate : 44.1 kHz
Frame rate : 43.066 FPS (1024 SPF)
Compression mode : Lossy
Delay relative to video : 38 ms
Stream size : 256 MiB (6%)
Title : English 2.0
Language : English
Default : No
Forced : No

DOWNLOAD


PART01 |||| PART02 |||| PART03 |||| PART04

PART01 |||| PART02 |||| PART03 |||| PART04

PART01 |||| PART02 |||| PART03 |||| PART04

PART01 |||| PART02 |||| PART03 |||| PART04


Leave A Reply

Your email address will not be published.

%d bloggers like this: