เว็บโหลดหนัง HD MINI-HD SUPER-HQ Full-HD 1080p One2up VIP Master Zoom ซูม หนังใหม่ ออนไลน์ มาสเตอร์ ไทย จีน ฝรั่ง การ์ตูน

[ฝรั่ง] Pacific Rim: Uprising (2018) แปซิฟิค ริม ปฏิวัติพลิกโลก [1080p] [พากย์ไทยโรง 2.0 + เสียงอังกฤษ 2.0] [บรรยายอังกฤษ] [เสียงไทยโรง + ซับอังกฤษ] [ONE2UP]

0

โหลดหนัง  Pacific Rim: Uprising (2018) แปซิฟิค ริม ปฏิวัติพลิกโลก

เรื่องย่อ Pacific Rim: Uprising (2018) แปซิฟิค ริม ปฏิวัติพลิกโลก

พบกับการต่อสู้ที่ครอบคลุมทั่วโลกระหว่างสัตว์ประหลาดจากนอกโลกที่มีพลังทำลายล้างสูงและสุดยอดเครื่องจักรกลที่ถูกสร้างขึ้นเพื่อกำจัดพวกมันภายใต้การควบคุมของมนุษย์เป็นเพียงปฐมบทที่นำไปสู่การโจมตีมนุษยชาติแบบเต็มพิกัดใน Pacific Rim Uprising แปซิฟิค ริม ปฏิวัติพลิกโลกจอห์น โบเยกา (Star Wars: The Force Awakens) นำแสดงในบท เจค เพนท์คอสต์ ชายหนุ่มหัวรั้น ผู้เคยเป็นผู้บังคับเยเกอร์อนาคตไกล ผู้ซึ่งพ่อผู้โด่งดังของเขาสละชีวิตเพื่อชัยชนะของมน ุษยชาติเหนือสัตว์ประหลาด ไคจู นับตั้งแต่นั้นมา เจคก็เลิกฝึกฝนและเข้าไปพัวพันกับโลกอาชญากรรม แต่เมื่อภัยคุกคามที่ร้ายแรงยิ่งกว่าถูกปลดปล่อยออกมา เพื่อทำลายเมืองและสร้างความสิ้นหวังให้กับโลกใบนี้ เขาก็ได้รับโอกาสสุดท้ายในการสานต่อปณิธานของพ่อเขาจากน้องสาวผู้หายตัวไปนานของเขา มาโกะ โมริ (รินโกะ คิคุจิ) ผู้นำพลขับผู้กล้าหาญรุ่นใหม่ ผู้เติบโตภายใต้เงาสงคราม ในตอนที่พวกเขาแสวงหาความยุติธรรมให้กับผู้ที่ล่วงลับ ความหวังเพียงหนึ่งเดียวของพวกเขาคือ การรวมใจเป็นหนึ่งในการลุกฮือของคนทั่วโลกเพื่อต่อต้ านกองกำลังที่หมายจะกำจัดพวกเขาให้สูญสิ้นเผ่าพันธุ์ เจคได้ร่วมมือกับแลมเบิร์ต (สก็อตต์ อีสต์วูดจาก Fast & Furious 8) นักบินที่เต็มไปด้วยพรสวรรค์ผู้เป็นคู่แข่งของเขา และแฮ็กเกอร์ เยเกอร์วัย 15 ปี อมารา (ไคลี สเปนีย์ นักแสดงหน้าใหม่) และบรรดาวีรบุรุษจากกองกำลังปกป้องภาคพื้นแปซิฟิค ก็กลายเป็นครอบครัวเพียงหนึ่งเดียวที่หลงเหลืออยู่ของเขา ในการก้าวไปสู่การเป็นกองกำลังป้องกันที่ทรงพลังที่สุดเท่าที่เคยปรากฏขึ้นบนผืนโลก พวกเขาจะสร้างปรากฏการณ์การผจญภัยสุดตระการตามันส์ระทึกโลกให้เป็นที่ประจักษ์

Complete name : Pacific.Rim.2.Uprising.2018.1080p.WEB-DL.AC3.THR2.0.H264.One2loadup.com.mkv
Format : Matroska
Format version : Version 4 / Version 2
File size : 3.84 GiB
Duration : 1 h 50 min
Overall bit rate : 4 967 kb/s
Movie name : Pacific.Rim.2.Uprising.2018.1080p.WEB-DL.AC3.THR2.0.H264.One2loadup.com
Encoded date : UTC 2018-05-17 02:08:30
Writing application : mkvmerge v9.9.0 (‘Pick Up’) 64bit
Writing library : libebml v1.3.4 + libmatroska v1.4.5
Cover : Yes
Attachments : cover.jpg

Video
ID : 1
Format : AVC
Format/Info : Advanced Video Codec
Format profile : [email protected]
Format settings : CABAC / 5 Ref Frames
Format settings, CABAC : Yes
Format settings, ReFrames : 5 frames
Codec ID : V_MPEG4/ISO/AVC
Duration : 1 h 50 min
Bit rate : 4 516 kb/s
Width : 1 916 pixels
Height : 796 pixels
Display aspect ratio : 2.40:1
Frame rate mode : Constant
Frame rate : 23.976 (23976/1000) FPS
Color space : YUV
Chroma subsampling : 4:2:0
Bit depth : 8 bits
Scan type : Progressive
Bits/(Pixel*Frame) : 0.124
Stream size : 3.49 GiB (91%)
Title : Pacific.Rim.2.Uprising.2018.1080p.WEB-DL.AC3.THR2.0.H264.One2loadup.com
Language : English
Default : Yes
Forced : No
Color range : Limited
Color primaries : BT.709
Transfer characteristics : BT.709
Matrix coefficients : BT.709

Audio #1
ID : 2
Format : AC-3
Format/Info : Audio Coding 3
Codec ID : A_AC3
Duration : 1 h 50 min
Bit rate mode : Constant
Bit rate : 192 kb/s
Channel(s) : 2 channels
Channel positions : Front: L R
Sampling rate : 48.0 kHz
Frame rate : 31.250 FPS (1536 SPF)
Bit depth : 16 bits
Compression mode : Lossy
Delay relative to video : -43 ms
Stream size : 152 MiB (4%)
Title : THR 2.0
Language : Thai
Service kind : Complete Main
Default : Yes
Forced : Yes

Audio #2
ID : 3
Format : AAC
Format/Info : Advanced Audio Codec
Format profile : LC
Codec ID : A_AAC-2
Duration : 1 h 50 min
Bit rate : 256 kb/s
Channel(s) : 2 channels
Channel positions : Front: L R
Sampling rate : 48.0 kHz
Frame rate : 46.875 FPS (1024 SPF)
Compression mode : Lossy
Delay relative to video : -43 ms
Stream size : 203 MiB (5%)
Title : English 2.0
Language : English
Default : No
Forced : No

Text
ID : 4
Format : UTF-8
Codec ID : S_TEXT/UTF8
Codec ID/Info : UTF-8 Plain Text
Duration : 1 h 40 min
Bit rate : 57 b/s
Count of elements : 1127
Stream size : 42.3 KiB (0%)
Title : English Srt
Language : English
Default : No
Forced : No

DOWNLOAD


PART01 |||| PART02 |||| PART03 |||| PART04

PART01 |||| PART02 |||| PART03 |||| PART04

PART01 |||| PART02 |||| PART03 |||| PART04

PART01 |||| PART02 |||| PART03 |||| PART04


Leave A Reply

Your email address will not be published.

%d bloggers like this: