เว็บโหลดหนัง HD MINI-HD SUPER-HQ Full-HD 1080p One2up VIP Master Zoom ซูม หนังใหม่ ออนไลน์ มาสเตอร์ ไทย จีน ฝรั่ง การ์ตูน

[ฝรั่ง] Mute (2018) [1080p] [พากย์อังกฤษ 5.1] [Soundtrack บรรยายไทย + อังกฤษ] [Netflix-Encode.H.264] [เสียงอังกฤษ + ซับไทย] [Modified] [ONE2UP]

0

โหลดหนัง Mute (2018) 

เรื่องย่อ Mute (2018)

Mute คือหนึ่งในโปรเจคในฝันของดันแคนโจนส์ (ผกก.หนังไซไฟเทพๆอย่างMoon,Source Code หรือล่าสุด Warcraft) ซึ่งดันแคนใช้เวลา 15 ปีในการสร้างมันขึ้นมา นับตั้งแต่บทดราฟต์แรกเมื่อปี 2003 หนังว่าด้วยเรื่องราวของ ลีโอ บาร์เทนเดอร์ใบ้คนนึงในเบอร์ลินปี 2052 ที่เข้าไปพัวพันกับมาเฟียเจ้าถิ่นเพื่อตามหาเพื่อนที ่หายตัวไปซึ่งเดิมที Mute จะต้องเป็นหนังเรื่องแรกของดันแคนโจนส์ ซึ่งพี่แกก็ส่งบทนี้ไปให้แซมร็อคเวล ซึ่งพี่แซมก็ชอบมากๆและอยากเล่นบทลีโอ แต่ไปๆมาๆหนังไม่ได้สร้างซักที แต่ด้วยความติดใจในตัวแซมร็อคเวลล์ดันแคนโจนส์เลยเขียนบทอีกเรื่องให้แซมเลย นั่นก็คือ Moon ซึ่งมันกลายเป็นหนังเรื่องแรกของดันแคนในเวลาต่อมาซึ่งนอกจาก Alexander Skarsgard ที่รับบทลีโอ ยังมี Paul Rudd ด้วย

Complete name : Mute.2018.×264.1080p.Subthai.One2loadup.com.mkv
Format : Matroska
Format version : Version 4 / Version 2
File size : 3.37 GiB
Duration : 2 h 6 min
Overall bit rate mode : Variable
Overall bit rate : 3 815 kb/s
Encoded date : UTC 2018-02-24 10:41:26
Writing application : mkvmerge v20.0.0 (‘I Am The Sun’) 64-bit
Writing library : libebml v1.3.5 + libmatroska v1.4.8

Video
ID : 1
Format : AVC
Format/Info : Advanced Video Codec
Format profile : [email protected]
Format settings, CABAC : Yes
Format settings, RefFrames : 3 frames
Codec ID : V_MPEG4/ISO/AVC
Duration : 2 h 6 min
Bit rate mode : Variable
Bit rate : 3 480 kb/s
Maximum bit rate : 5 220 kb/s
Width : 1 920 pixels
Height : 1 080 pixels
Display aspect ratio : 16:9
Frame rate mode : Constant
Frame rate : 24.000 FPS
Color space : YUV
Chroma subsampling : 4:2:0
Bit depth : 8 bits
Scan type : Progressive
Bits/(Pixel*Frame) : 0.070
Stream size : 3.00 GiB (89%)
Writing library : x264 core 148 r2714 2daf636
Encoding settings : cabac=1 / ref=3 / deblock=1:0:0 / analyse=0x1:0x111 / me=umh / subme=10 / psy=1 / psy_rd=1.00:0.00 / mixed_ref=1 / me_range=24 / chroma_me=1 / trellis=2 / 8x8dct=0 / cqm=0 / deadzone=21,11 / fast_pskip=1 / chroma_qp_offset=-2 / threads=8 / lookahead_threads=1 / sliced_threads=0 / nr=0 / decimate=1 / interlaced=0 / bluray_compat=0 / stitchable=1 / constrained_intra=0 / bframes=2 / b_pyramid=0 / b_adapt=2 / b_bias=0 / direct=3 / weightb=1 / open_gop=0 / weightp=2 / keyint=48 / keyint_min=25 / scenecut=0 / intra_refresh=0 / rc_lookahead=48 / rc=2pass / mbtree=1 / bitrate=3480 / ratetol=1.0 / qcomp=0.50 / qpmin=6 / qpmax=51 / qpstep=4 / cplxblur=20.0 / qblur=0.5 / vbv_maxrate=5220 / vbv_bufsize=6960 / nal_hrd=vbr / filler=0 / ip_ratio=1.40 / aq=1:1.00
Default : Yes
Forced : No

Audio
ID : 2
Format : AC-3
Format/Info : Audio Coding 3
Format settings, Endianness : Big
Codec ID : A_AC3
Duration : 2 h 6 min
Bit rate mode : Constant
Bit rate : 384 kb/s
Channel(s) : 6 channels
Channel positions : Front: L C R, Side: L R, LFE
Sampling rate : 48.0 kHz
Frame rate : 31.250 FPS (1536 SPF)
Bit depth : 16 bits
Compression mode : Lossy
Stream size : 348 MiB (10%)
Language : English
Service kind : Complete Main
Default : Yes
Forced : No

Text #1
ID : 3
Format : VobSub
Muxing mode : zlib
Codec ID : S_VOBSUB
Codec ID/Info : Picture based subtitle format used on DVDs
Duration : 1 h 58 min
Bit rate : 8 240 b/s
Count of elements : 1095
Stream size : 7.00 MiB (0%)
Title : AngsanaUPC
Language : Thai
Default : Yes
Forced : No

Text #2
ID : 4
Format : VobSub
Muxing mode : zlib
Codec ID : S_VOBSUB
Codec ID/Info : Picture based subtitle format used on DVDs
Duration : 1 h 58 min
Bit rate : 7 471 b/s
Count of elements : 1094
Stream size : 6.34 MiB (0%)
Title : Tahoma
Language : Thai
Default : No
Forced : No

Text #3
ID : 5
Format : PGS
Muxing mode : zlib
Codec ID : S_HDMV/PGS
Codec ID/Info : Picture based subtitle format used on BDs/HD-DVDs
Duration : 1 h 58 min
Bit rate : 37.7 kb/s
Count of elements : 2190
Stream size : 32.1 MiB (1%)
Title : AngsanaUPC
Language : Thai
Default : No
Forced : No

Text #4
ID : 6
Format : PGS
Muxing mode : zlib
Codec ID : S_HDMV/PGS
Codec ID/Info : Picture based subtitle format used on BDs/HD-DVDs
Duration : 1 h 58 min
Bit rate : 34.2 kb/s
Count of elements : 2188
Stream size : 29.0 MiB (1%)
Title : Tahoma
Language : Thai
Default : No
Forced : No

Text #5
ID : 7
Format : UTF-8
Codec ID : S_TEXT/UTF8
Codec ID/Info : UTF-8 Plain Text
Duration : 1 h 58 min
Bit rate : 126 b/s
Count of elements : 1095
Stream size : 110 KiB (0%)
Title : Yellow
Language : Thai
Default : No
Forced : No

Text #6
ID : 8
Format : UTF-8
Codec ID : S_TEXT/UTF8
Codec ID/Info : UTF-8 Plain Text
Duration : 1 h 58 min
Bit rate : 90 b/s
Count of elements : 1095
Stream size : 79.1 KiB (0%)
Title : White
Language : Thai
Default : No
Forced : No

Text #7
ID : 9
Format : UTF-8
Codec ID : S_TEXT/UTF8
Codec ID/Info : UTF-8 Plain Text
Duration : 1 h 28 min
Bit rate : 1 b/s
Count of elements : 45
Stream size : 1.13 KiB (0%)
Title : Forced
Language : English
Default : No
Forced : Yes

Text #8
ID : 10
Format : UTF-8
Codec ID : S_TEXT/UTF8
Codec ID/Info : UTF-8 Plain Text
Duration : 1 h 57 min
Bit rate : 43 b/s
Count of elements : 1247
Stream size : 37.8 KiB (0%)
Language : English
Default : No
Forced : No


PART01 |||| PART02 |||| PART03 |||| PART04

PART01 |||| PART02 |||| PART03 |||| PART04

PART01 |||| PART02 |||| PART03 |||| PART04

PART01 |||| PART02 |||| PART03 |||| PART04


Leave A Reply

Your email address will not be published.

%d bloggers like this: