[จีน] Monkey King: Hero Is Back (2015) ไซอิ๋ววานรผู้พิทักษ์ [1080p] [พากย์ไทย] [rip from Master] [เสียงไทย] [PANDAFILE]

2

โหลดหนัง Monkey King: Hero Is Back (2015) ไซอิ๋ววานรผู้พิทักษ์

Xi you ji zhi da sheng gui lai (2015) 1h 29min | Animation, Action, Adventure | 10 July 2015 (China) Summary: The all-powerful Monkey King once roamed freely between Heaven and Earth, but after angering the gods, he was imprisoned within an ice cage deep within the mountains. Five hundred years ... See full summary »
Countries: ChinaLanguages: Mandarin

เรื่องย่อ Monkey King: Hero Is Back (2015) ไซอิ๋ววานรผู้พิทักษ์

ไซอิ๋ววานรผู้พิทักษ์ ภาพยนตร์แอนิเมชั่นเรื่องดีเยี่ยมที่สุดโกยรายได้สูง เป็นในจีน เปิดตำนานไซอิ๋วเวอร์ชั่นใหม่ กับการเสี่ยงภัยระหว่างเณรน้อยแล้วก็พระอิศวรลิงเพื่ อทำลายอสูรร้ายคุ้มครองปกป้องรักษามนุษย์ให้ไม่มีอัน ตราย ราชาลิง (แจ็กกี ระเบียง) เคยท่องไปอย่างอิสรเสรีระหว่างโลกมนุษย์รวมทั้งสวรรค ์ แม้กระนั้นคราวหลังทำให้ราชาสวรรค์โกรธ เขาก็ถูกจำจองในกรงน้ำแข็งข้างในแนวเขา 500 ปีต่อมา เหล่าปีศาจร้ายเข้าจู่โจมหมู่บ้านเล็กๆแห่งหนึ่ง เด็กชายคนหนึ่งหนีไปในแนวเขาและปลดปล่อยราชาลิงให้หล ุดจากการคุมขังโดยไม่ได้ตั้งใจ ด้วยความช่วยเหลือและก็การแข็งทื่อจากเด็กชายพิเศษคน นี้ ราชาลิงตกลงปลงใจช่วยหมู่บ้านจากเหล่าปีศาจร้าย

Complete name : Monkey.King.Hero.Is.Back.1080p.BBTH.x264.One2loadup.com.mkv
Format : Matroska
Format version : Version 4 / Version 2
File size : 3.88 GiB
Duration : 1 h 27 min
Overall bit rate mode : Variable
Overall bit rate : 6 353 kb/s
Movie name : Monkey.King.Hero.Is.Back.1080p.BBTH.x264.One2loadup.com
Encoded date : UTC 2018-03-24 11:19:12
Writing application : mkvmerge v9.9.0 (‘Pick Up’) 64bit
Writing library : libebml v1.3.4 + libmatroska v1.4.5

Video
ID : 1
Format : AVC
Format/Info : Advanced Video Codec
Format profile : [email protected]
Format settings : CABAC / 3 Ref Frames
Format settings, CABAC : Yes
Format settings, ReFrames : 3 frames
Codec ID : V_MPEG4/ISO/AVC
Duration : 1 h 27 min
Bit rate mode : Variable
Bit rate : 6 190 kb/s
Maximum bit rate : 9 285 kb/s
Width : 1 920 pixels
Height : 1 080 pixels
Display aspect ratio : 16:9
Frame rate mode : Constant
Frame rate : 23.976 (24000/1001) FPS
Color space : YUV
Chroma subsampling : 4:2:0
Bit depth : 8 bits
Scan type : Progressive
Bits/(Pixel*Frame) : 0.125
Stream size : 3.76 GiB (97%)
Title : www.elitetorrent2.me
Writing library : x264 core 118
Encoding settings : cabac=1 / ref=3 / deblock=1:0:0 / analyse=0x1:0x111 / me=umh / subme=10 / psy=1 / psy_rd=1.00:0.00 / mixed_ref=1 / me_range=24 / chroma_me=1 / trellis=2 / 8x8dct=0 / cqm=0 / deadzone=21,11 / fast_pskip=1 / chroma_qp_offset=-2 / threads=6 / sliced_threads=0 / nr=0 / decimate=1 / interlaced=0 / bluray_compat=0 / constrained_intra=0 / bframes=2 / b_pyramid=0 / b_adapt=2 / b_bias=0 / direct=3 / weightb=1 / open_gop=0 / weightp=2 / keyint=48 / keyint_min=25 / scenecut=0 / intra_refresh=0 / rc_lookahead=0 / rc=2pass / mbtree=1 / bitrate=6190 / ratetol=1.0 / qcomp=0.50 / qpmin=6 / qpmax=51 / qpstep=4 / cplxblur=20.0 / qblur=0.5 / vbv_maxrate=9285 / vbv_bufsize=12380 / nal_hrd=vbr / ip_ratio=1.40 / aq=1:1.00
Default : Yes
Forced : No

Audio
ID : 2
Format : AC-3
Format/Info : Audio Coding 3
Codec ID : A_AC3
Duration : 1 h 27 min
Bit rate mode : Constant
Bit rate : 192 kb/s
Channel(s) : 2 channels
Channel positions : Front: L R
Sampling rate : 48.0 kHz
Frame rate : 31.250 FPS (1536 SPF)
Bit depth : 16 bits
Compression mode : Lossy
Stream size : 120 MiB (3%)
Language : Thai
Service kind : Complete Main
Default : Yes
Forced : No

 

DOWNLOAD


PART01 |||| PART02 |||| PART03 |||| PART04

PART01 |||| PART02 |||| PART03 |||| PART04

PART01 |||| PART02 |||| PART03 |||| PART04

PART01 |||| PART02 |||| PART03 |||| PART04


2 Comments
  1. misterheartzzz says

    โหลดไม่ได้ทุกpartเลยครับแอด

    1. Admin
      Admin says

      แก้ไขเรียบร้อยฮ๊ะ


แจ้งหนังเสีย หรือโหลดไม่ได้ ทั้งลิ้งฟรีและ vip สามารถกดที่รูปด้านบนนี้ได้เลย

: Disable Comments
%d bloggers like this: