[MINI Super-HQ] xXx: State of the Union (2005) ทริปเปิ้ลเอ๊กซ์ พยัคฆ์ร้ายพันธุ์ดุ ภาค 2 [1080p] [พากย์ไทย 5.1 + เสียงอังกฤษ 5.1] [บรรยายไทย + อังกฤษ] [เสียงไทย + ซับไทย] [ONE2UP]

0

โหลดหนัง xXx: State of the Union (2005) ทริปเปิ้ลเอ๊กซ์ พยัคฆ์ร้ายพันธุ์ดุ ภาค 2 

เรื่องย่อ xXx: State of the Union (2005) ทริปเปิ้ลเอ๊กซ์ พยัคฆ์ร้ายพันธุ์ดุ ภาค 2

เมื่อการเมืองสหรัฐฯ เกิดการเปลี่ยนแปลง ประธานาธิบดีแซนฟอร์ด (ปีเตอร์ สเตราส์) ประธานาธิบดีชื่อดังคนใหม่กลายเป็น “เสี้ยนหนาม” ของกลุ่มคณะรัฐบาลโฉดบางคนที่ถูกริดรอนอำนาจ แผนสังหารประธานาธิบดีเขย่าความมั่นคงของรัฐสภาสหรัฐ ฯจึงเกิดขึ้น บุคคลที่จะต่อกรกับอำนาจมืดของเหล่าทรราชย์ได้ มีเพียง ออกัสตัส กิบบอนส์ (แซมมวล แอล. แจ็คสัน) หัวหน้าหน่วยราชการลับสุดยอด xXx กิบบอนส์รู้ดีว่าภาระกิจที่หินที่สุดกำลังจะมาถึง เขาจึงจำเป็นต้องออกค้นหาสายลับในแบบฉบับ xXx ที่กล้า บ้าระห่ำ ไม่เกรงกลัวใครด้วยตัวเองอีกครั้ง และคนที่เหมาะสมาที่สุดคือ นักโทษ ดาเรียส สโตน (ไอซ์ คิวบ์) อดีตหน่วยรบพิเศษกองกำลังสหรัฐฯที่ต้องโทษจำคุก กับปฏิบัติการใหม่ของสายลับพันธุ์ดุ ที่จะหยุดยั้งแผนการโค่นล้มรัฐบาล ครั้งแรกในประวัติศาสตร์ของสหรัฐอเมริกา!!

Complete name : [MINI Super-HQ]_2.xXx.State.of.the.Union.2005.1080p.BrRip.AC3.x264.One2loadup.com.mkv
Format : Matroska
Format version : Version 4
File size : 3.24 GiB
Duration : 1 h 40 min
Overall bit rate : 4 591 kb/s
Movie name : [MINI Super-HQ]_2.xXx.State.of.the.Union.2005.1080p.BrRip.AC3.x264.One2loadup.com
Encoded date : UTC 2014-10-07 18:37:59
Writing application : mkvmerge v6.6.0 (‘The Edge Of The In Between’) built on Dec 1 2013 17:55:00
Writing library : libebml v1.3.0 + libmatroska v1.4.1

Video
ID : 1
Format : AVC
Format/Info : Advanced Video Codec
Format profile : [email protected]
Format settings : CABAC / 4 Ref Frames
Format settings, CABAC : Yes
Format settings, ReFrames : 4 frames
Codec ID : V_MPEG4/ISO/AVC
Duration : 1 h 40 min
Bit rate : 3 500 kb/s
Width : 1 920 pixels
Height : 800 pixels
Display aspect ratio : 2.40:1
Frame rate mode : Constant
Frame rate : 23.976 (24000/1001) FPS
Color space : YUV
Chroma subsampling : 4:2:0
Bit depth : 8 bits
Scan type : Progressive
Bits/(Pixel*Frame) : 0.095
Stream size : 2.41 GiB (74%)
Title : [MINI Super-HQ]_2.xXx.State.of.the.Union.2005.1080p.BrRip.AC3.x264.One2loadup.com
Writing library : x264 core 130 r2273 b3065e6
Encoding settings : cabac=1 / ref=1 / deblock=1:0:0 / analyse=0x1:0x111 / me=hex / subme=2 / psy=1 / psy_rd=1.00:0.00 / mixed_ref=0 / me_range=16 / chroma_me=1 / trellis=0 / 8x8dct=0 / cqm=0 / deadzone=21,11 / fast_pskip=1 / chroma_qp_offset=0 / threads=12 / lookahead_threads=4 / sliced_threads=0 / nr=0 / decimate=1 / interlaced=0 / bluray_compat=0 / constrained_intra=0 / bframes=3 / b_pyramid=2 / b_adapt=1 / b_bias=0 / direct=1 / weightb=1 / open_gop=0 / weightp=1 / keyint=240 / keyint_min=24 / scenecut=40 / intra_refresh=0 / rc_lookahead=10 / rc=abr / mbtree=1 / bitrate=3500 / ratetol=1.0 / qcomp=0.60 / qpmin=0 / qpmax=69 / qpstep=4 / vbv_maxrate=20000 / vbv_bufsize=25000 / nal_hrd=none / ip_ratio=1.40 / aq=1:1.00
Language : English
Default : Yes
Forced : No
Color range : Limited
Color primaries : BT.709
Transfer characteristics : BT.709
Matrix coefficients : BT.709

Audio #1
ID : 2
Format : AC-3
Format/Info : Audio Coding 3
Commercial name : Dolby Digital
Codec ID : A_AC3
Duration : 1 h 40 min
Bit rate mode : Constant
Bit rate : 640 kb/s
Channel(s) : 6 channels
Channel layout : L R C LFE Ls Rs
Sampling rate : 48.0 kHz
Frame rate : 31.250 FPS (1536 SPF)
Bit depth : 16 bits
Compression mode : Lossy
Stream size : 462 MiB (14%)
Title : Thai AC3 5.1 at 640 Kbps
Language : Thai
Service kind : Complete Main
Default : Yes
Forced : No

Audio #2
ID : 3
Format : AC-3
Format/Info : Audio Coding 3
Commercial name : Dolby Digital
Codec ID : A_AC3
Duration : 1 h 40 min
Bit rate mode : Constant
Bit rate : 448 kb/s
Channel(s) : 6 channels
Channel layout : L R C LFE Ls Rs
Sampling rate : 48.0 kHz
Frame rate : 31.250 FPS (1536 SPF)
Bit depth : 16 bits
Compression mode : Lossy
Stream size : 324 MiB (10%)
Title : English AC3 5.1 448 Kbps
Language : English
Service kind : Complete Main
Default : No
Forced : No

Text #1
ID : 4
Format : VobSub
Muxing mode : zlib
Codec ID : S_VOBSUB
Codec ID/Info : Picture based subtitle format used on DVDs
Title : Thai 480p
Language : Thai
Default : Yes
Forced : No

Text #2
ID : 5
Format : VobSub
Muxing mode : zlib
Codec ID : S_VOBSUB
Codec ID/Info : Picture based subtitle format used on DVDs
Title : Thai 1080p
Language : Thai
Default : No
Forced : No

Text #3
ID : 6
Format : VobSub
Muxing mode : zlib
Codec ID : S_VOBSUB
Codec ID/Info : Picture based subtitle format used on DVDs
Title : Thai 1080p Under
Language : Thai
Default : No
Forced : No

Text #4
ID : 7
Format : PGS
Muxing mode : zlib
Codec ID : S_HDMV/PGS
Codec ID/Info : Picture based subtitle format used on BDs/HD-DVDs
Title : Thai PGS BluRay Master
Language : Thai
Default : No
Forced : No

Text #5
ID : 8
Format : VobSub
Muxing mode : zlib
Codec ID : S_VOBSUB
Codec ID/Info : Picture based subtitle format used on DVDs
Title : English 1080p
Language : English
Default : No
Forced : No

Text #6
ID : 9
Format : UTF-8
Codec ID : S_TEXT/UTF8
Codec ID/Info : UTF-8 Plain Text
Title : English SRT
Language : English
Default : No
Forced : No

 

DOWNLOAD


PART01 |||| PART02 |||| PART03 |||| PART04

PART01 |||| PART02 |||| PART03 |||| PART04

PART01 |||| PART02 |||| PART03 |||| PART04

PART01 |||| PART02 |||| PART03 |||| PART04


Leave A Reply

Your email address will not be published.

%d bloggers like this: