[MINI Super-HQ] xXx: Return of Xander Cage (2017) ทริปเปิ้ลเอ็กซ์ ทลายแผนยึดโลก ภาค 3 [1080p] [พากย์ไทย 5.1 + เสียงอังกฤษ DTS] [บรรยายไทย + อังกฤษ] [เสียงไทย + ซับไทย] [ONE2UP]

2

xXx: Return of Xander Cage (2017)

โหลดหนัง xXx: Return of Xander Cage (2017) ทริปเปิ้ลเอ็กซ์ ทลายแผนยึดโลก ภาค 3

เรื่องย่อ xXx: Return of Xander Cage (2017) ทริปเปิ้ลเอ็กซ์ ทลายแผนยึดโลก ภาค 3

หลังจากที่ทำภารกิจสำคัญเพื่อชาติและเพื่อปลดปล่อยตั วเองจากความผิดในอดีต แซนเดอร์ เคจ (วิน เดนเซล) ก็ได้ใช้ชีวิตอย่างที่ใฝ่ฝันตามเงื่อนไขที่รัฐบาลให้ ไว้ และถือว่าเป็นช่วงเวลาที่ยอดเยี่ยมสำหรับเขา จากอดีตนักกีฬาเอ็กทรีมซุปเปอร์สตาร์ใต้ดิน สู่การเป็นสายลับระดับชาติ และเขาก็ทำงานได้สำเร็จด้วยการเอาชีวิตเข้าแลก แต่ด้วยความสามารถและไหวพริบของเขาทำให้เขาเอาตัวรอด มาได้และทำงานได้สำเร็จ รวมทั้งช่วยคนนับล้านทั่วโลก ก่อนที่จะเจอสารเคมีร้ายแรงจากแก็งค์อนาคีย์ 99 เล่นงาน และตอนนี้เขากลับมาอีกครั้งกับภารกิจที่ซับซ้อนและยา กเย็นกว่าเดิม จนถูกเรียกตัวจาก ออกุส กิ้บบอนส์ ตัวแทนจากหน่วยงาน “NSA” ของรัฐบาลอเมริกา ที่ทำเฉพาะภารกิจเสี่ยงตายและเป็นเรื่องลับสุดยอดของ ประเทศ แซนเดอร์ ไม่สามารถปฏิเสธงานนี้ได้ เพราะงานนี้ร้ายแรงกว่าเดิม หากแผนการของฝ่ายตรงข้ามสำเร็จ นั่นคือ การครอบครองอาวุธร้ายแรงที่เรียกว่า กล่องแพนโดร่า ซึ่งถูกครอบครองโดย เซียง นักรบเดนตายและมีฝีมือการต่อสู้ที่ยอดเยี่ยม รวมทั้งลูกทีมของเขาที่ต่างก็มีทักษะการต่อสู้ระดับส ูงและยากที่จะรับมือ อย่างไรก็ตามงานนี้ ไม่ใช่มีเพียงแค่การต่อสู้เพื่อแย่งชิงของสำคัญเท่าน ั้น เรื่องการครอบครองอาวุธร้ายแรงนี้ กลับได้รับความร่วมมือกับผู้นำในหลายๆประเทศ และเขาก็ได้เข้าไปพัวพันกับเรื่องนี้แบบที่ถอนตัวไม่ ได้อีกแล้ว ทางเดียวที่เขาจะจัดการเรื่องนี้ได้คือ แผนการที่ดี สติอันเฉียบแหลม ความห้าวหาญ และความแข็งแกร่งทั้งจิตใจและร่างกายของเขา กับเพื่อนร่วมงานที่ “NSA” ส่งมาเพื่อช่วยเขาให้ทำภารกิจให้สำเร็จ ความอันตรายที่ไม่มีใครอยากเข้าใกล้ แต่แซนเดอร์ เคจ กำลังพยายามเดินเข้าไปหาและจัดการเรื่องนี้ให้จบลงก่ อนที่ทุกอย่างจะสายเกินไป!!

Complete name : [MINI Super-HQ]_xXx.Return.of.Xander.Cage.2017.1080p.BrRip.DTS.x264.One2loadup.com.mkv
Format : Matroska
Format version : Version 4
File size : 4.11 GiB
Duration : 1 h 46 min
Overall bit rate : 5 505 kb/s
Movie name : [MINI Super-HQ]_xXx.Return.of.Xander.Cage.2017.1080p.BrRip.DTS.x264.THB.One2loadup.com
Encoded date : UTC 2010-02-22 21:41:31
Writing application : mkvmerge v5.9.0 (‘On The Loose’) built on Dec 9 2012 15:37:01
Writing library : libebml v1.3.0 + libmatroska v1.4.0

Video
ID : 1
Format : AVC
Format/Info : Advanced Video Codec
Format profile : [email protected]
Format settings : CABAC / 4 Ref Frames
Format settings, CABAC : Yes
Format settings, ReFrames : 4 frames
Codec ID : V_MPEG4/ISO/AVC
Duration : 1 h 46 min
Bit rate : 3 939 kb/s
Width : 1 920 pixels
Height : 800 pixels
Display aspect ratio : 2.40:1
Frame rate mode : Constant
Frame rate : 23.976 (24000/1001) FPS
Color space : YUV
Chroma subsampling : 4:2:0
Bit depth : 8 bits
Scan type : Progressive
Bits/(Pixel*Frame) : 0.107
Stream size : 2.97 GiB (72%)
Title : [MINI Super-HQ]_xXx.Return.of.Xander.Cage.2017.1080p.BrRip.DTS.x264.THB.One2loadup.com
Writing library : x264 core 130 r2273 b3065e6
Encoding settings : cabac=1 / ref=3 / deblock=1:0:0 / analyse=0x3:0x113 / me=umh / subme=11 / psy=1 / psy_rd=1.00:0.00 / mixed_ref=1 / me_range=48 / chroma_me=1 / trellis=2 / 8x8dct=1 / cqm=0 / deadzone=21,11 / fast_pskip=1 / chroma_qp_offset=-2 / threads=10 / lookahead_threads=1 / sliced_threads=0 / nr=0 / decimate=1 / interlaced=0 / bluray_compat=0 / constrained_intra=0 / bframes=3 / b_pyramid=2 / b_adapt=1 / b_bias=0 / direct=1 / weightb=1 / open_gop=0 / weightp=2 / keyint=240 / keyint_min=24 / scenecut=40 / intra_refresh=0 / rc_lookahead=40 / rc=2pass / mbtree=1 / bitrate=3939 / ratetol=1.0 / qcomp=0.60 / qpmin=0 / qpmax=69 / qpstep=4 / cplxblur=20.0 / qblur=0.5 / ip_ratio=1.40 / aq=1:1.00
Language : English
Default : Yes
Forced : No
Color range : Limited
Color primaries : BT.709
Transfer characteristics : BT.709
Matrix coefficients : BT.709

Audio #1
ID : 2
Format : AC-3
Format/Info : Audio Coding 3
Commercial name : Dolby Digital
Codec ID : A_AC3
Duration : 1 h 46 min
Bit rate mode : Constant
Bit rate : 640 kb/s
Channel(s) : 6 channels
Channel layout : L R C LFE Ls Rs
Sampling rate : 48.0 kHz
Frame rate : 31.250 FPS (1536 SPF)
Bit depth : 16 bits
Compression mode : Lossy
Stream size : 489 MiB (12%)
Title : Thai BluRay Master
Language : Thai
Service kind : Complete Main
Default : Yes
Forced : Yes

Audio #2
ID : 3
Format : DTS ES
Format/Info : Digital Theater Systems
Commercial name : DTS-ES Matrix
Codec ID : A_DTS
Duration : 1 h 46 min
Bit rate mode : Constant
Bit rate : 768 kb/s
Channel(s) : 6 channels
Channel(s)_Original : 7 channels
Channel layout : C L R Ls Rs Cb LFE
Sampling rate : 48.0 kHz
Frame rate : 93.750 FPS (512 SPF)
Bit depth : 24 bits
Compression mode : Lossy
Stream size : 587 MiB (14%)
Title : English DTS
Language : English
Default : No
Forced : No

Text #1
ID : 4
Format : VobSub
Codec ID : S_VOBSUB
Codec ID/Info : Picture based subtitle format used on DVDs
Title : Thai 1080p Forced
Language : Thai
Default : Yes
Forced : Yes

Text #2
ID : 5
Format : VobSub
Codec ID : S_VOBSUB
Codec ID/Info : Picture based subtitle format used on DVDs
Title : Thai 480p
Language : Thai
Default : No
Forced : No

Text #3
ID : 6
Format : VobSub
Codec ID : S_VOBSUB
Codec ID/Info : Picture based subtitle format used on DVDs
Title : Thai 1080p BluRay Master
Language : Thai
Default : No
Forced : No

Text #4
ID : 7
Format : VobSub
Codec ID : S_VOBSUB
Codec ID/Info : Picture based subtitle format used on DVDs
Title : Thai 1080p Angsana
Language : Thai
Default : No
Forced : No

Text #5
ID : 8
Format : VobSub
Codec ID : S_VOBSUB
Codec ID/Info : Picture based subtitle format used on DVDs
Title : Thai 1080p Yellow
Language : Thai
Default : No
Forced : No

Text #6
ID : 9
Format : VobSub
Codec ID : S_VOBSUB
Codec ID/Info : Picture based subtitle format used on DVDs
Title : Thai 1080p Out
Language : Thai
Default : No
Forced : No

Text #7
ID : 10
Format : VobSub
Codec ID : S_VOBSUB
Codec ID/Info : Picture based subtitle format used on DVDs
Title : Thai 1080p BIG
Language : Thai
Default : No
Forced : No

Text #8
ID : 11
Format : VobSub
Codec ID : S_VOBSUB
Codec ID/Info : Picture based subtitle format used on DVDs
Title : Thai 1080p Out [BIG]
Language : Thai
Default : No
Forced : No

Text #9
ID : 12
Format : PGS
Codec ID : S_HDMV/PGS
Codec ID/Info : Picture based subtitle format used on BDs/HD-DVDs
Title : Thai PGS BluRay Master
Language : Thai
Default : No
Forced : No

Text #10
ID : 13
Format : PGS
Codec ID : S_HDMV/PGS
Codec ID/Info : Picture based subtitle format used on BDs/HD-DVDs
Title : Thai PGS Angsana
Language : Thai
Default : No
Forced : No

Text #11
ID : 14
Format : PGS
Codec ID : S_HDMV/PGS
Codec ID/Info : Picture based subtitle format used on BDs/HD-DVDs
Title : Thai PGS Yellow
Language : Thai
Default : No
Forced : No

Text #12
ID : 15
Format : PGS
Codec ID : S_HDMV/PGS
Codec ID/Info : Picture based subtitle format used on BDs/HD-DVDs
Title : Thai PGS Out
Language : Thai
Default : No
Forced : No

Text #13
ID : 16
Format : PGS
Codec ID : S_HDMV/PGS
Codec ID/Info : Picture based subtitle format used on BDs/HD-DVDs
Title : English
Language : English
Default : No
Forced : No

Menu
00:00:00.000 : en:00:00:00.000
00:07:09.137 : en:00:07:09.137
00:12:00.511 : en:00:12:00.511
00:22:38.107 : en:00:22:38.107
00:27:56.258 : en:00:27:56.258
00:38:27.764 : en:00:38:27.764
00:46:59.650 : en:00:46:59.650
00:52:45.621 : en:00:52:45.621
01:02:10.060 : en:01:02:10.060
01:11:50.181 : en:01:11:50.181
01:18:35.252 : en:01:18:35.252
01:28:42.734 : en:01:28:42.734
01:37:57.163 : en:01:37:57.163

 

DOWNLOAD


PART01 |||| PART02 |||| PART03 |||| PART04 |||| PART05

PART01 |||| PART02 |||| PART03 |||| PART04 |||| PART05

PART01 |||| PART02 |||| PART03 |||| PART04 |||| PART05

PART01 |||| PART02 |||| PART03 |||| PART04 |||| PART05


2 Comments
  1. Natruto says

    โหลดไม่ได้ครับ รบกวนช่วย check ที

    1. Admin
      Admin says

      โหลดได้ปกตินิ ติดปัญหาตรงไหนอะป่าว ส่งภาพ ปัญหาได้ช่องแชท facebook เลยเด้อ

Leave A Reply

Your email address will not be published.

%d bloggers like this: