[MINI Super-HQ] xXx (2002) ทริปเปิ้ลเอ็กซ์ พยัคฆ์ร้ายพันธุ์ดุ ภาค 1 [1080p] [พากย์ไทย 5.1 + เสียงอังกฤษ 5.1] [บรรยายไทย + อังกฤษ] [เสียงไทย + ซับไทย] [ONE2UP]

0

xXx (2002)

โหลดหนัง  xXx (2002) ทริปเปิ้ลเอ็กซ์ พยัคฆ์ร้ายพันธุ์ดุ ภาค 1

เรื่องย่อ xXx (2002) ทริปเปิ้ลเอ็กซ์ พยัคฆ์ร้ายพันธุ์ดุ ภาค 1

เรื่องราวเกิดขึ้นเมื่อแซนเดอร์ เคจ หรือ ทริปเปิ้ลเอ็กซ์ (วิน เดนเซล) ชายหนุ่มผู้มีชื่อเสียงในทางบ้าระห่ำ เป็นพวกเดนตายที่กฏหมายเข้าถึงไม่ได้ จนกระทั่งเขาพบกับ กิบสัน หัวหน้าหน่วย NSA ผู้ที่ต้องการหาคนเข้าไปสืบความลับของอาชญากรรัสเซีย กิบสันรู้ว่ามีเพียงคนเดียวเท่านั้นที่สามารถทำงานเส ี่ยงตายนี้ได้ ดังนั้นเขาจึงยื่นข้อเสนอให้กับ xXx โดยจะลบข้อมูลที่ทางการมีอยู่ ปล่อยเขาเป็นอิสระจากการติดตามของตำรวจ ถ้าเขายอมรับที่จำทำงานนี้ภายใต้การทำงานนอกเครื่องแ บบเพื่อเข้าไปสืบข้อมูลในกลุ่มอาชญากรร้ายรัสเซีย!!

Complete name : [MINI Super-HQ]_1.xXx.2002.1080p.BrRip.AC3.x264.One2loadup.com.mkv
Format : Matroska
Format version : Version 4
File size : 3.56 GiB
Duration : 2 h 4 min
Overall bit rate : 4 108 kb/s
Movie name : [MINI Super-HQ]_1.xXx.2002.1080p.BrRip.AC3.x264.One2loadup.com
Encoded date : UTC 2014-10-07 18:15:51
Writing application : mkvmerge v6.6.0 (‘The Edge Of The In Between’) built on Dec 1 2013 17:55:00
Writing library : libebml v1.3.0 + libmatroska v1.4.1

Video
ID : 1
Format : AVC
Format/Info : Advanced Video Codec
Format profile : [email protected]
Format settings : CABAC / 5 Ref Frames
Format settings, CABAC : Yes
Format settings, ReFrames : 5 frames
Codec ID : V_MPEG4/ISO/AVC
Duration : 2 h 4 min
Bit rate : 3 200 kb/s
Width : 1 904 pixels
Height : 792 pixels
Display aspect ratio : 2.40:1
Frame rate mode : Constant
Frame rate : 23.976 (24000/1001) FPS
Color space : YUV
Chroma subsampling : 4:2:0
Bit depth : 8 bits
Scan type : Progressive
Bits/(Pixel*Frame) : 0.089
Stream size : 2.71 GiB (76%)
Title : [MINI Super-HQ]_1.xXx.2002.1080p.BrRip.AC3.x264.One2loadup.com
Writing library : x264 core 138 r2358 9e941d1
Encoding settings : cabac=1 / ref=5 / deblock=1:0:0 / analyse=0x3:0x133 / me=umh / subme=10 / psy=1 / psy_rd=1.00:0.00 / mixed_ref=1 / me_range=24 / chroma_me=1 / trellis=2 / 8x8dct=1 / cqm=0 / deadzone=21,11 / fast_pskip=1 / chroma_qp_offset=-2 / threads=18 / lookahead_threads=3 / sliced_threads=0 / nr=0 / decimate=1 / interlaced=0 / bluray_compat=0 / constrained_intra=0 / bframes=8 / b_pyramid=2 / b_adapt=2 / b_bias=0 / direct=3 / weightb=1 / open_gop=0 / weightp=2 / keyint=240 / keyint_min=23 / scenecut=40 / intra_refresh=0 / rc_lookahead=60 / rc=2pass / mbtree=1 / bitrate=3200 / ratetol=1.0 / qcomp=0.60 / qpmin=0 / qpmax=69 / qpstep=4 / cplxblur=20.0 / qblur=0.5 / vbv_maxrate=62500 / vbv_bufsize=78125 / nal_hrd=none / ip_ratio=1.40 / aq=1:1.00
Language : English
Default : Yes
Forced : No

Audio #1
ID : 2
Format : AC-3
Format/Info : Audio Coding 3
Commercial name : Dolby Digital
Codec ID : A_AC3
Duration : 2 h 4 min
Bit rate mode : Constant
Bit rate : 448 kb/s
Channel(s) : 6 channels
Channel layout : L R C LFE Ls Rs
Sampling rate : 48.0 kHz
Frame rate : 31.250 FPS (1536 SPF)
Bit depth : 16 bits
Compression mode : Lossy
Delay relative to video : 2 s 0 ms
Stream size : 398 MiB (11%)
Title : Thai AC3 5.1 448 Kbps
Language : Thai
Service kind : Complete Main
Default : No
Forced : No

Audio #2
ID : 3
Format : AC-3
Format/Info : Audio Coding 3
Commercial name : Dolby Digital
Codec ID : A_AC3
Duration : 2 h 4 min
Bit rate mode : Constant
Bit rate : 448 kb/s
Channel(s) : 6 channels
Channel layout : L R C LFE Ls Rs
Sampling rate : 48.0 kHz
Frame rate : 31.250 FPS (1536 SPF)
Bit depth : 16 bits
Compression mode : Lossy
Delay relative to video : -500 ms
Stream size : 398 MiB (11%)
Title : English AC3 5.1 448 Kbps
Language : English
Service kind : Complete Main
Default : Yes
Forced : No

Text #1
ID : 4
Format : VobSub
Muxing mode : zlib
Codec ID : S_VOBSUB
Codec ID/Info : Picture based subtitle format used on DVDs
Title : Thai 480p
Language : Thai
Default : Yes
Forced : No

Text #2
ID : 5
Format : VobSub
Muxing mode : zlib
Codec ID : S_VOBSUB
Codec ID/Info : Picture based subtitle format used on DVDs
Title : Thai 1080p
Language : Thai
Default : No
Forced : No

Text #3
ID : 6
Format : VobSub
Muxing mode : zlib
Codec ID : S_VOBSUB
Codec ID/Info : Picture based subtitle format used on DVDs
Title : Thai 1080p Under
Language : Thai
Default : No
Forced : No

Text #4
ID : 7
Format : VobSub
Muxing mode : zlib
Codec ID : S_VOBSUB
Codec ID/Info : Picture based subtitle format used on DVDs
Title : English 1080p
Language : English
Default : No
Forced : No

Text #5
ID : 8
Format : UTF-8
Codec ID : S_TEXT/UTF8
Codec ID/Info : UTF-8 Plain Text
Title : English SRT
Language : English
Default : No
Forced : No

DOWNLOAD


PART01 |||| PART02 |||| PART03 |||| PART04

PART01 |||| PART02 |||| PART03 |||| PART04

PART01 |||| PART02 |||| PART03 |||| PART04

PART01 |||| PART02 |||| PART03 |||| PART04


Leave A Reply

Your email address will not be published.

%d bloggers like this: