เว็บโหลดหนัง HD MINI-HD SUPER-HQ Full-HD 1080p One2up VIP Mekafile Master Zoom ซูม หนังใหม่ ออนไลน์ มาสเตอร์ ไทย จีน ฝรั่ง การ์ตูน

[MINI Super-HQ] X-Men: Days of Future Past (2014) เอ็กซ์เม็น สงครามวันพิฆาตกู้อนาคต ภาค 7 [1080P] [พากย์ไทย 5.1 + อังกฤษ DTS] [บรรยายไทย + อังกฤษ] [เสียงไทย + ซับไทย] [ONE2UP]

0

X-Men: Days of Future Past (2014) เอ็กซ์เม็น สงครามวันพิฆาตกู้อนาคต ภาค 7

โหลดหนัง X-Men: Days of Future Past (2014) เอ็กซ์เม็น สงครามวันพิฆาตกู้อนาคต ภาค 7 

เรื่องย่อ X-Men: Days of Future Past (2014) เอ็กซ์เม็น สงครามวันพิฆาตกู้อนาคต ภาค 7

ในการต่อสู้กับสงครามครั้งยิ่งใหญ่เพื่อหาทางรอดจากกองทัพหุ่นยนต์เซนตินัล ที่มีหน้าที่ตามล่าและกำจัดมนุษย์กลายพันธุ์ให้หมดสิ้น เหล่าเอ็กซ์เม็นจากสามภาคแรก จึงต้องรวมพลังกับตัวของพวกเขาเองเมื่อครั้งยังหนุ่มสาว ในการต่อสู้ที่จะต้องเปลี่ยนแปลงอดีต เพื่อรักษาอนาคตของเราทุกคน สงครามวันพิฆาตกู้อนาคต

Complete name : [MINI Super-HQ]_7.X-Men.Days.of.Future.Past.2014.The.Rogue.Cut.1080p.BrRip.DTS.x264.One2loadup.com.mkv
Format : Matroska
Format version : Version 4 / Version 2
File size : 4.72 GiB
Duration : 2 h 28 min
Overall bit rate : 4 538 kb/s
Movie name : [MINI Super-HQ]_7.X-Men.Days.of.Future.Past.2014.The.Rogue.Cut.1080p.BrRip.DTS.x264.One2loadup.com
Encoded date : UTC 2010-02-22 21:41:31
Writing application : mkvmerge v5.9.0 (‘On The Loose’) built on Dec 9 2012 15:37:01
Writing library : libebml v1.3.0 + libmatroska v1.4.0

Video
ID : 1
Format : AVC
Format/Info : Advanced Video Codec
Format profile : [email protected]
Format settings, CABAC : Yes
Format settings, RefFrames : 4 frames
Codec ID : V_MPEG4/ISO/AVC
Duration : 2 h 28 min
Bit rate : 3 003 kb/s
Width : 1 920 pixels
Height : 800 pixels
Display aspect ratio : 2.40:1
Frame rate mode : Constant
Frame rate : 23.976 (24000/1001) FPS
Color space : YUV
Chroma subsampling : 4:2:0
Bit depth : 8 bits
Scan type : Progressive
Bits/(Pixel*Frame) : 0.082
Stream size : 3.21 GiB (68%)
Title : [MINI Super-HQ]_7.X-Men.Days.of.Future.Past.2014.The.Rogue.Cut.1080p.BrRip.DTS.x264.One2loadup.com
Writing library : x264 core 142 r2479 dd79a61
Encoding settings : cabac=1 / ref=4 / deblock=1:0:0 / analyse=0x3:0x113 / me=umh / subme=11 / psy=1 / psy_rd=1.00:0.00 / mixed_ref=1 / me_range=48 / chroma_me=1 / trellis=2 / 8x8dct=1 / cqm=0 / deadzone=21,11 / fast_pskip=1 / chroma_qp_offset=-2 / threads=36 / lookahead_threads=4 / sliced_threads=0 / nr=0 / decimate=1 / interlaced=0 / bluray_compat=0 / constrained_intra=0 / bframes=4 / b_pyramid=2 / b_adapt=2 / b_bias=0 / direct=1 / weightb=1 / open_gop=0 / weightp=2 / keyint=240 / keyint_min=24 / scenecut=40 / intra_refresh=0 / rc_lookahead=40 / rc=2pass / mbtree=1 / bitrate=3003 / ratetol=1.0 / qcomp=0.60 / qpmin=0 / qpmax=69 / qpstep=4 / cplxblur=20.0 / qblur=0.5 / ip_ratio=1.40 / aq=1:1.00
Language : English
Default : Yes
Forced : No
Color range : Limited
Color primaries : BT.709
Transfer characteristics : BT.709
Matrix coefficients : BT.709

Audio #1
ID : 2
Format : AC-3
Format/Info : Audio Coding 3
Format settings, Endianness : Big
Codec ID : A_AC3
Duration : 2 h 28 min
Bit rate mode : Constant
Bit rate : 384 kb/s
Channel(s) : 6 channels
Channel positions : Front: L C R, Side: L R, LFE
Sampling rate : 48.0 kHz
Frame rate : 31.250 FPS (1536 SPF)
Bit depth : 16 bits
Compression mode : Lossy
Delay relative to video : -83 ms
Stream size : 409 MiB (8%)
Title : Thai DVD Master
Language : Thai
Service kind : Complete Main
Default : Yes
Forced : Yes

Audio #2
ID : 3
Format : DTS
Format/Info : Digital Theater Systems
Mode : 16
Format settings, Endianness : Big
Codec ID : A_DTS
Duration : 2 h 28 min
Bit rate mode : Constant
Bit rate : 755 kb/s
Channel(s) : 6 channels
Channel positions : Front: L C R, Side: L R, LFE
Sampling rate : 48.0 kHz
Frame rate : 93.750 FPS (512 SPF)
Bit depth : 24 bits
Compression mode : Lossy
Delay relative to video : -83 ms
Stream size : 803 MiB (17%)
Title : English DTS
Language : English
Default : No
Forced : No

Audio #3
ID : 4
Format : AC-3
Format/Info : Audio Coding 3
Format settings, Endianness : Big
Codec ID : A_AC3
Duration : 2 h 28 min
Bit rate mode : Constant
Bit rate : 224 kb/s
Channel(s) : 2 channels
Channel positions : Front: L R
Sampling rate : 48.0 kHz
Frame rate : 31.250 FPS (1536 SPF)
Bit depth : 16 bits
Compression mode : Lossy
Delay relative to video : -83 ms
Stream size : 238 MiB (5%)
Title : Commentary
Language : English
Service kind : Complete Main
Default : No
Forced : No

Text #1
ID : 5
Format : VobSub
Codec ID : S_VOBSUB
Codec ID/Info : Picture based subtitle format used on DVDs
Title : Thai 480p From DVD Master
Language : Thai
Default : No
Forced : No

Text #2
ID : 6
Format : VobSub
Codec ID : S_VOBSUB
Codec ID/Info : Picture based subtitle format used on DVDs
Title : Thai 720p
Language : Thai
Default : No
Forced : No

Text #3
ID : 7
Format : VobSub
Codec ID : S_VOBSUB
Codec ID/Info : Picture based subtitle format used on DVDs
Title : Thai 1080p
Language : Thai
Default : No
Forced : No

Text #4
ID : 8
Format : VobSub
Codec ID : S_VOBSUB
Codec ID/Info : Picture based subtitle format used on DVDs
Title : Thai 1080p Yellow
Language : Thai
Default : No
Forced : No

Text #5
ID : 9
Format : VobSub
Codec ID : S_VOBSUB
Codec ID/Info : Picture based subtitle format used on DVDs
Title : Thai 1080p Out
Language : Thai
Default : No
Forced : No

Text #6
ID : 10
Format : VobSub
Codec ID : S_VOBSUB
Codec ID/Info : Picture based subtitle format used on DVDs
Title : Thai 1080p Out [BIG]
Language : Thai
Default : No
Forced : No

Text #7
ID : 11
Format : VobSub
Codec ID : S_VOBSUB
Codec ID/Info : Picture based subtitle format used on DVDs
Title : Thai 1080p BIG
Language : Thai
Default : No
Forced : No

Text #8
ID : 12
Format : VobSub
Codec ID : S_VOBSUB
Codec ID/Info : Picture based subtitle format used on DVDs
Title : Thai For Non-English Part
Language : Thai
Default : Yes
Forced : Yes

Text #9
ID : 13
Format : PGS
Codec ID : S_HDMV/PGS
Codec ID/Info : Picture based subtitle format used on BDs/HD-DVDs
Title : Thai PGS
Language : Thai
Default : No
Forced : No

Text #10
ID : 14
Format : PGS
Codec ID : S_HDMV/PGS
Codec ID/Info : Picture based subtitle format used on BDs/HD-DVDs
Title : Thai PGS Yellow
Language : Thai
Default : No
Forced : No

Text #11
ID : 15
Format : PGS
Codec ID : S_HDMV/PGS
Codec ID/Info : Picture based subtitle format used on BDs/HD-DVDs
Title : Thai PGS Out
Language : Thai
Default : No
Forced : No

Text #12
ID : 16
Format : VobSub
Codec ID : S_VOBSUB
Codec ID/Info : Picture based subtitle format used on DVDs
Title : English
Language : English
Default : No
Forced : No

Text #13
ID : 17
Format : VobSub
Codec ID : S_VOBSUB
Codec ID/Info : Picture based subtitle format used on DVDs
Title : Commentary-1
Language : English
Default : No
Forced : No

Text #14
ID : 18
Format : VobSub
Codec ID : S_VOBSUB
Codec ID/Info : Picture based subtitle format used on DVDs
Title : Commentary-2
Language : English
Default : No
Forced : No

Menu
00:00:00.000 : :00:00:00.000
00:03:33.421 : :00:03:33.338
00:08:04.817 : :00:08:04.734
00:10:34.300 : :00:10:34.217
00:15:11.494 : :00:15:11.410
00:18:44.331 : :00:18:44.248
00:22:43.612 : :00:22:43.529
00:24:38.852 : :00:24:38.769
00:29:05.702 : :00:29:05.619
00:33:03.523 : :00:33:03.440
00:37:11.979 : :00:37:11.896
00:38:49.911 : :00:38:49.827
00:41:07.006 : :00:41:06.923
00:43:50.419 : :00:43:50.336
00:50:05.460 : :00:50:05.377
00:52:07.165 : :00:52:07.082
00:55:11.474 : :00:55:11.391
00:57:56.431 : :00:57:56.348
01:01:04.744 : :01:01:04.661
01:04:01.504 : :01:04:01.421
01:06:39.912 : :01:06:39.829
01:10:22.885 : :01:10:22.802
01:13:00.542 : :01:13:00.459
01:16:28.417 : :01:16:28.334
01:18:48.807 : :01:18:48.724
01:20:44.673 : :01:20:44.590
01:22:47.045 : :01:22:46.962
01:28:07.657 : :01:28:07.574
01:31:19.140 : :01:31:19.057
01:33:51.042 : :01:33:50.958
01:39:22.456 : :01:39:22.373
01:42:10.374 : :01:42:10.291
01:44:32.099 : :01:44:32.016
01:49:13.630 : :01:49:13.547
01:51:00.946 : :01:51:00.862
01:54:54.387 : :01:54:54.304
01:59:16.023 : :01:59:15.940
02:02:13.826 : :02:02:13.743
02:04:30.588 : :02:04:30.504
02:08:16.313 : :02:08:16.230
02:13:27.666 : :02:13:27.583
02:16:57.334 : :02:16:57.250
02:19:19.893 : :02:19:19.809
02:27:34.095 : :02:27:34.011

 

 

VIP โหลดไม่ได้แจ้งที่แชททางขวามือเลยจ้า


PART01 |||| PART02 |||| PART03 |||| PART04 |||| PART05

PART01 |||| PART02 |||| PART03 |||| PART04 |||| PART05

PART01 |||| PART02 |||| PART03 |||| PART04 |||| PART05

PART01 |||| PART02 |||| PART03 |||| PART04 |||| PART05


Leave A Reply

Your email address will not be published.

%d bloggers like this: