โหลดหนัง HD MINI-HD SUPER-HQ Full-HD 1080p VIP Master Zoom ซูม หนังใหม่ ออนไลน์ มาสเตอร์ ไทย จีน ฝรั่ง การ์ตูน

[MINI Super-HQ] X-Men (2000) เอ็กซ์ เม็น ศึกมนุษย์พลังเหนือโลก ภาค 1 [1080P] [พากย์ไทย 5.1 + อังกฤษ DTS] [บรรยายไทย + อังกฤษ] [เสียงไทย + ซับไทย] [ONE2UP]

3

โหลดหนัง  X-Men (2000) เอ็กซ์ เม็น ศึกมนุษย์พลังเหนือโลก ภาค 1 

เรื่องย่อ X-Men (2000) เอ็กซ์ เม็น ศึกมนุษย์พลังเหนือโลก ภาค 1

ไซคลอปส์, จีน เกรย์ และ สตอร์ม พวกเขาล้วนเป็นลูกหลานของอะตอม เป็นพวกเหนือมนุษย์ เป็นข้อหนึ่งของโซ่แห่งวิวัฒนาการ ต่างเกิดมาพร้อมกับพันธุกรรมพิเศษ ที่พลังเหนือมนุษย์ของพวกเขาจะเริ่มฉายแววออกมาเมื่อย่างเข้าสู่วัยรุ่นอย่าง ดวงตามหาประลัยของไซคลอปส์ (เจมส์ มาร์สเด็น) ที่สามารถแหวกภูเขาทั้งลูกให้แยกออกจากกันได้ อำนาจโทรจิตทะลุพิกัดของ จีน เกรย์ (เฟมเก้ แจนเซ่น) ที่แกร่งกล้าทั้งพลังจิตเคลื่อนสิ่งของและกระแสโทรจิต และสตอร์ม (เฮลลี่ เบอร์รี่) นางพญาแห่งพายุและสายฟ้า ที่สามารถสร้างความแปรปรวนให้สภาพอากาศเป็นไปได้ดังใจของเธอ

ในโลกที่ความเกลียดชังและอคติทวีความเข้มข้นขึ้นทุกที พวกเขาถูกคนที่ไม่อาจยอมรับความแตกต่างเหนือมนุษย์ได้กลุ่มหนึ่งจัดให้เป็น ตัวประหลาด ผิดธรรมชาติ พวกนอกคอกที่น่ารังเกียจ และน่าเกลียดน่ากลัว ผู้นำกลุ่มนี้ก็คือ วุฒิสมาชิก โรเบิร์ต เคลลี่ (บรู้ซ เดวิดสัน) นักการเมืองแนวแม็คคาร์ธี่ ที่พยายามผลักดันกฎหมาย ตีแผ่ความเลวร้าย ของพวกเหนือมนุษย์ แม้จะถูกสังคมทอดทิ้งอย่างไม่ใยดี แต่ ไซคลอปส์, จีน เกรย์, สตอร์ม, และกลุ่มคนเหนือมนุษย์อีกนับพันชีวิตก็ยังเอาตัวรอดอยู่ได้ ด้วยการดูแลสั่งสอนของศาสตราจารย์ ชาร์ลส์ เซเวียร์ (แพททริค สจ๊วต) ผู้ทรงพลังอำนาจโทรจิต ที่พยายามอบรมให้ลูกศิษย์เหนือมนุษย์เหล่านี้เรียนรู้ถึงการควบคุม และใช้ความสามารถพิเศษของพวกเขาในทางที่ถูก เพื่อประโยชน์สูงสุดของมวลมนุษยชาติ พวกเหนือมนุษย์เหล่านี้ต้องต่อสู้เพื่อปกป้องโลกจากพวกที่ยอมรับพวกเขาไม่ได้ เซเวียร์ ยังต้อนรับสมาชิกหน้าใหม่เข้าร่วมขบวนการด้วยอีกสองคนคือ โลแกน หรือ วูล์ฟเวอรีน (ฮิวจ์ แจ๊คแมน) นักสู้ผู้โดดเดี่ยวเจ้าของกรงเล็บระห่ำสุดขั้ว ที่นอกจากจะมีอำนาจพิเศษในการเยี่ยวยารักษาผู้คนแล้ว ก็ยังเป็นคนอารมณ์ดุดันเยี่ยงสัตว์ร้าย และเข้าขย้ำได้ด้วยกรงเล็บแกร่งกล้าที่สามารถยืดยาวออกมาได้เมื่อต้องการ และ โร้ก (แอนนา พาควิน) นักสู้สาวแรงสูงผู้ดูดกลืนพลังงาน และความทรงจำจากคนที่เธอได้สัมผัส

ในขณะที่ วูล์ฟเวอรีน และ โร้ก ปรับตัวให้เข้ากับวิถีของพวกเหนือมนุษย์ เหล่า X-Men กลับต้องเข้าห่ำหั่นทำสงครามทั้งทางกายภาพ และในเชิงปรัชญากับ เออริค เล็นเชอร์ หรือ แม็กนีโต้ (เอียน แม็คเคลเล็น) ซึ่งเคยเป็นทั้งเพื่อน และผู้ร่วมอุดมการณ์ของศาสตราจารย์มาก่อน แม็กนีโต้ ผู้นำแห่งอำนาจมืดพลังสนามแม่เหล็ก เขาเป็นพวกเหนือมนุษย์ที่มีพลังอำนาจแกร่งกล้าที่สุดในโลก แต่เขากลับหันหลังให้กับสังคมมนุษย์โลกด้วยความเชื่อที่ว่า คนธรรมดาไม่มีทางจะใช้ชีวิตร่วมโลกใบเดียวกันกับพวกเหนือมนุษย์ได้ และพวกเหนือมนุษย์ต่างหากที่สมควรได้รับสิทธิอันชอบธรรมที่จะกำหนดอนาคตของโลกใบนี้

เขาร่วมมือกับน้องชายร่วมสายเลือด – เซเบอร์ทูธ (ไทเลอร์ เมน) นักล่าสัญชาติญาณสัตว์ป่าเลือดเย็น มิสติค (รีเบ็คก้า โรเมน-สตามอส) สาวพลังอำนาจลึกลับ เธอสามารถเปลี่ยนรูปลักษณ์ และอำพรางตัวได้ และ โท้ด (เรย์ พาร์ค) คนพันธุ์กร้าวที่แม้จะสายตาสั้น แต่กลับกระโดดได้ไกล ซึ่งกลุ่มเหนือมนุษย์เหล่านี้จะไม่ยอมให้สิ่งใดมาขัดขวางการกำชะตาอนาคตของโลกใบนี้ไปจากมือของพวกเขาได้ แม้ว่าการทำสงครามครั้งนี้อาจทำให้เผ่าพันธุ์มนุษยชาติต้องสูญสิ้น หรือแม้แต่พวกเหนือมนุษย์ด้วยกันเองก็อาจจะไม่เหลือรอดเลย ก็ตามที

Complete name : [MINI Super-HQ]_X-Men.2000.1080p.BluRay.DTS.x264.One2loadup.com.mkv
Format : Matroska
Format version : Version 4 / Version 2
File size : 4.30 GiB
Duration : 1 h 44 min
Overall bit rate mode : Variable
Overall bit rate : 5 896 kb/s
Movie name : [MINI Super-HQ]_X-Men.2000.1080p.BluRay.DTS.x264.One2loadup.com
Encoded date : UTC 2010-02-22 21:41:31
Writing application : mkvmerge v5.9.0 (‘On The Loose’) built on Dec 9 2012 15:37:01
Writing library : libebml v1.3.0 + libmatroska v1.4.0

Video
ID : 1
Format : AVC
Format/Info : Advanced Video Codec
Format profile : [email protected]
Format settings, CABAC : Yes
Format settings, RefFrames : 4 frames
Codec ID : V_MPEG4/ISO/AVC
Duration : 1 h 44 min
Bit rate mode : Variable
Bit rate : 4 620 kb/s
Maximum bit rate : 100.0 Mb/s
Width : 1 920 pixels
Height : 816 pixels
Display aspect ratio : 2.35:1
Frame rate mode : Constant
Frame rate : 23.976 FPS
Color space : YUV
Chroma subsampling : 4:2:0
Bit depth : 8 bits
Scan type : Progressive
Bits/(Pixel*Frame) : 0.123
Stream size : 3.34 GiB (78%)
Title : [MINI Super-HQ]_X-Men.2000.1080p.BluRay.DTS.x264.One2loadup.com
Writing library : x264 core 130 r2273 b3065e6
Encoding settings : cabac=1 / ref=4 / deblock=1:0:0 / analyse=0x3:0x133 / me=umh / subme=11 / psy=1 / psy_rd=1.00:0.15 / mixed_ref=1 / me_range=64 / chroma_me=1 / trellis=2 / 8x8dct=1 / cqm=0 / deadzone=21,11 / fast_pskip=1 / chroma_qp_offset=-3 / threads=16 / lookahead_threads=1 / sliced_threads=0 / nr=0 / decimate=1 / interlaced=0 / bluray_compat=0 / constrained_intra=0 / bframes=4 / b_pyramid=2 / b_adapt=2 / b_bias=0 / direct=3 / weightb=1 / open_gop=0 / weightp=2 / keyint=250 / keyint_min=23 / scenecut=40 / intra_refresh=0 / rc_lookahead=100 / rc=2pass / mbtree=1 / bitrate=4620 / ratetol=1.0 / qcomp=0.60 / qpmin=0 / qpmax=69 / qpstep=4 / cplxblur=20.0 / qblur=0.5 / vbv_maxrate=99999 / vbv_bufsize=99999 / nal_hrd=vbr / ip_ratio=1.40 / aq=1:1.00
Language : English
Default : Yes
Forced : No

Audio #1
ID : 2
Format : AC-3
Format/Info : Audio Coding 3
Format settings, Endianness : Big
Codec ID : A_AC3
Duration : 1 h 44 min
Bit rate mode : Constant
Bit rate : 448 kb/s
Channel(s) : 6 channels
Channel positions : Front: L C R, Side: L R, LFE
Sampling rate : 48.0 kHz
Frame rate : 31.250 FPS (1536 SPF)
Bit depth : 16 bits
Compression mode : Lossy
Stream size : 334 MiB (8%)
Title : [THAI AC3 FROM BLU-RAY MASTER]
Language : Thai
Service kind : Complete Main
Default : Yes
Forced : No

Audio #2
ID : 3
Format : DTS
Format/Info : Digital Theater Systems
Mode : 16
Format settings, Endianness : Big
Codec ID : A_DTS
Duration : 1 h 44 min
Bit rate mode : Constant
Bit rate : 755 kb/s
Channel(s) : 6 channels
Channel positions : Front: L C R, Side: L R, LFE
Sampling rate : 48.0 kHz
Frame rate : 93.750 FPS (512 SPF)
Bit depth : 24 bits
Compression mode : Lossy
Stream size : 563 MiB (13%)
Title : ENG DTS
Language : English
Default : No
Forced : No

Text #1
ID : 4
Format : VobSub
Codec ID : S_VOBSUB
Codec ID/Info : Picture based subtitle format used on DVDs
Title : [SUB THAI 480P FROM BLU-RAY]
Language : Thai
Default : No
Forced : No

Text #2
ID : 5
Format : VobSub
Codec ID : S_VOBSUB
Codec ID/Info : Picture based subtitle format used on DVDs
Title : [SUB THAI 1080P FROM BLU-RAY]
Language : Thai
Default : No
Forced : No

Text #3
ID : 6
Format : PGS
Codec ID : S_HDMV/PGS
Codec ID/Info : Picture based subtitle format used on BDs/HD-DVDs
Title : [SUB THAI PGS FROM BLU-RAY]
Language : Thai
Default : No
Forced : No

Text #4
ID : 7
Format : PGS
Codec ID : S_HDMV/PGS
Codec ID/Info : Picture based subtitle format used on BDs/HD-DVDs
Title : [SUB THAI PGS FROM BLU-RAY] UNDER
Language : Thai
Default : No
Forced : No

Text #5
ID : 8
Format : PGS
Codec ID : S_HDMV/PGS
Codec ID/Info : Picture based subtitle format used on BDs/HD-DVDs
Title : [SUB ENG PGS FROM BLU-RAY]
Language : English
Default : No
Forced : No

Text #6
ID : 9
Format : VobSub
Codec ID : S_VOBSUB
Codec ID/Info : Picture based subtitle format used on DVDs
Title : [SUB ENG 480P FROM BLU-RAY]
Language : English
Default : No
Forced : No

DOWNLOAD


PART01 |||| PART02 |||| PART03 |||| PART04 |||| PART05

PART01 |||| PART02 |||| PART03 |||| PART04 |||| PART05

PART01 |||| PART02 |||| PART03 |||| PART04 |||| PART05

PART01 |||| PART02 |||| PART03 |||| PART04 |||| PART05


3 Comments
  1. magpielf101 says

    แอดครับขอพาร์ท4 หน่อยครับ โหลดไม่ได้แล้วครับ

  2. Aittiwat Singkhong
    Aittiwat Singkhong says

    พาท 3 เสียครับ โหลดไม่ได่เลย

    1. Admin
      Admin says

      แก้ไขเรียบร้อยฮ๊ะ

Leave A Reply

Your email address will not be published.

%d bloggers like this: