โหลดหนัง HD MINI-HD SUPER-HQ Full-HD 1080p VIP Master Zoom ซูม หนังใหม่ ออนไลน์ มาสเตอร์ ไทย จีน ฝรั่ง การ์ตูน

[MINI Super-HQ] Venom (2018) เวน่อม [1080p] [พากย์ไทย 5.1 + เสียงอังกฤษ DTS] [บรรยายไทย + อังกฤษ] [เสียงไทย + ซับไทย] [OPENLOAD]

7

Venom (2018) เวน่อม

โหลดหนัง  Venom (2018) เวน่อม

เรื่องย่อ Venom (2018) เวน่อม

ในฐานะนักข่าว เอ็ดดี้ บร็อค (ทอม ฮาร์ดี้) พยายามจะโค่น คาร์ลตัน เดรค (ริซ อาห์เม็ด) นักวิทยาศาสตร์ชื่อฉาวโฉ่ของมูลนิธิไลฟ์ ฟาวน์เดชันมานานหลายปีแล้วมันเป็นความหมกมุ่นที่ทำให้หน้าที่การงานเขาและความสัมพันธ์ระหว่างเขากับ แอนน์ (มิเชลล์ วิลเลียมส์) พังยับเยิน ในตอนที่เอเลียน เวน่อมหนึ่งในการทดลองของเดรค ผสานร่างกับเอ็ดดี้ และเขาก็มีพลังพิเศษขึ้นมา รวมถึงโอกาสในการทำอะไรก็ได้ตามที่เขาต้องการด้วย
เวน่อม ผู้มีจิตใจบิดเบี้ยว มืดหม่น คาดเดาไม่ได้และถูกขับดันด้วยแรงแค้น ทิ้งให้เอ็ดดี้ต้องยื้อแย่งเพื่อชิงอำนาจควบคุมความส ามารถแสนอันตรายที่เขาพบว่าน่าหลงใหลและเพิ่มพลังให้กับเขา ในขณะที่เอ็ดดี้และเวน่อมต้องการกันและกันเพื่อให้ได ้สิ่งที่พวกเขาตามหา พวกเขาก็เริ่มหล่อหลอมเป็นหนึ่งเดียวกันมากขึ้นเรื่อยๆ!!!

Complete name : [MINI Super-HQ]_Venom.2018.1080p.BrRip.DTS.x264.One2loadup.com.mkv
Format : Matroska
Format version : Version 4
File size : 3.93 GiB
Duration : 1 h 52 min
Overall bit rate : 5 016 kb/s
Movie name : [MINI Super-HQ]_Venom.2018.1080p.BrRip.DTS.x264.One2loadup.com
Encoded date : UTC 2010-02-22 21:41:31
Writing application : mkvmerge v5.9.0 (‘On The Loose’) built on Dec 9 2012 15:37:01
Writing library : libebml v1.3.0 + libmatroska v1.4.0

Video
ID : 1
Format : AVC
Format/Info : Advanced Video Codec
Format profile : [email protected]
Format settings : CABAC / 4 Ref Frames
Format settings, CABAC : Yes
Format settings, ReFrames : 4 frames
Codec ID : V_MPEG4/ISO/AVC
Duration : 1 h 52 min
Bit rate : 3 500 kb/s
Width : 1 920 pixels
Height : 800 pixels
Display aspect ratio : 2.40:1
Frame rate mode : Constant
Frame rate : 23.976 (24000/1001) FPS
Color space : YUV
Chroma subsampling : 4:2:0
Bit depth : 8 bits
Scan type : Progressive
Bits/(Pixel*Frame) : 0.095
Stream size : 2.76 GiB (70%)
Title : [MINI Super-HQ]_Venom.2018.1080p.BrRip.DTS.x264.One2loadup.com
Writing library : x264 core 146 r2538 121396c
Encoding settings : cabac=1 / ref=5 / deblock=1:-3:-3 / analyse=0x3:0x133 / me=tesa / subme=11 / psy=1 / psy_rd=1.00:0.15 / mixed_ref=1 / me_range=48 / chroma_me=1 / trellis=2 / 8x8dct=1 / cqm=0 / deadzone=21,11 / fast_pskip=1 / chroma_qp_offset=-3 / threads=54 / lookahead_threads=4 / sliced_threads=0 / nr=0 / decimate=1 / interlaced=0 / bluray_compat=1 / constrained_intra=0 / bframes=3 / b_pyramid=1 / b_adapt=2 / b_bias=0 / direct=3 / weightb=1 / open_gop=0 / weightp=1 / keyint=250 / keyint_min=1 / scenecut=40 / intra_refresh=0 / rc_lookahead=60 / rc=2pass / mbtree=1 / bitrate=3500 / ratetol=1.0 / qcomp=0.60 / qpmin=0 / qpmax=69 / qpstep=4 / cplxblur=20.0 / qblur=0.5 / ip_ratio=1.40 / aq=1:1.30
Language : English
Default : Yes
Forced : No

Audio #1
ID : 2
Format : AC-3
Format/Info : Audio Coding 3
Commercial name : Dolby Digital
Codec ID : A_AC3
Duration : 1 h 52 min
Bit rate mode : Constant
Bit rate : 640 kb/s
Channel(s) : 6 channels
Channel layout : L R C LFE Ls Rs
Sampling rate : 48.0 kHz
Frame rate : 31.250 FPS (1536 SPF)
Bit depth : 16 bits
Compression mode : Lossy
Stream size : 513 MiB (13%)
Title : Thai BluRay Master
Language : Thai
Service kind : Complete Main
Default : Yes
Forced : Yes

Audio #2
ID : 3
Format : DTS
Format/Info : Digital Theater Systems
Codec ID : A_DTS
Duration : 1 h 52 min
Bit rate mode : Constant
Bit rate : 755 kb/s
Channel(s) : 6 channels
Channel layout : C L R Ls Rs LFE
Sampling rate : 48.0 kHz
Frame rate : 93.750 FPS (512 SPF)
Bit depth : 24 bits
Compression mode : Lossy
Stream size : 605 MiB (15%)
Title : English DTS
Language : English
Default : No
Forced : No

Text #1
ID : 4
Format : VobSub
Codec ID : S_VOBSUB
Codec ID/Info : Picture based subtitle format used on DVDs
Language : Thai
Default : Yes
Forced : Yes

Text #2
ID : 5
Format : VobSub
Codec ID : S_VOBSUB
Codec ID/Info : Picture based subtitle format used on DVDs
Title : Thai 480p
Language : Thai
Default : No
Forced : No

Text #3
ID : 6
Format : VobSub
Codec ID : S_VOBSUB
Codec ID/Info : Picture based subtitle format used on DVDs
Title : Thai 720p
Language : Thai
Default : No
Forced : No

Text #4
ID : 7
Format : VobSub
Codec ID : S_VOBSUB
Codec ID/Info : Picture based subtitle format used on DVDs
Title : Thai 1080p
Language : Thai
Default : No
Forced : No

Text #5
ID : 8
Format : VobSub
Codec ID : S_VOBSUB
Codec ID/Info : Picture based subtitle format used on DVDs
Title : Thai 1080p Yellow
Language : Thai
Default : No
Forced : No

Text #6
ID : 9
Format : VobSub
Codec ID : S_VOBSUB
Codec ID/Info : Picture based subtitle format used on DVDs
Title : Thai 1080p Out
Language : Thai
Default : No
Forced : No

Text #7
ID : 10
Format : VobSub
Codec ID : S_VOBSUB
Codec ID/Info : Picture based subtitle format used on DVDs
Title : Thai 1080p BIG
Language : Thai
Default : No
Forced : No

Text #8
ID : 11
Format : PGS
Codec ID : S_HDMV/PGS
Codec ID/Info : Picture based subtitle format used on BDs/HD-DVDs
Title : Thai PGS BluRay Master
Language : Thai
Default : No
Forced : No

Text #9
ID : 12
Format : PGS
Codec ID : S_HDMV/PGS
Codec ID/Info : Picture based subtitle format used on BDs/HD-DVDs
Title : Thai PGS Out
Language : Thai
Default : No
Forced : No

Text #10
ID : 13
Format : PGS
Codec ID : S_HDMV/PGS
Codec ID/Info : Picture based subtitle format used on BDs/HD-DVDs
Title : English
Language : English
Default : No
Forced : No

DOWNLOAD


PART01 |||| PART02 |||| PART03 |||| PART04

PART01 |||| PART02 |||| PART03 |||| PART04

PART01 |||| PART02 |||| PART03 |||| PART04

PART01 |||| PART02 |||| PART03 |||| PART04


7 Comments
  1. HeyBro says

    แอดครับ อัพลิ้งค์เว็บอื่นได้ไหมครับ ที่ไม่ใช่ techy3s.com ผมว่ามันโหลดยากไปบ้างทีครับ ไม่ได้ก็ไม่เป็นไรครับ

    1. Admin
      Admin says

      มันติดปัญหาอะไรหว่าๆ จะได้แก้ไขถูก

  2. Freedom Civil Man
    Freedom Civil Man says

    โหลดมาแล้วแตกไฟล์ไม่ได้ครับ

    1. Admin
      Admin says

      แนะนำให้ใช้ winrar เวอร์ชั่นล่าสุดฮ๊ะ

      1. Kitipan_golf says

        ไฟล์4น่าจะErrorครับ

  3. Kitipan_golf says

    ไฟล์ที่4น่าจะErrorครับ แตกไฟล์ไม่ได้เหมือนกันครับ

    1. Admin
      Admin says

      แนะนำให้ใช้ winrar เวอร์ชั่นล่าสุด ในการแยกไฟล์ หาก ยัง error อยู่แนะนำให้โหลด part นั้นใหม่ฮ๊ะ หรือยังไม่ได้แนะนำให้โหลดไฟล์ทั้งหมดใหม่ฮ๊ะ เพราะทางเราทดสอบแล้วแยกไฟล์ได้ปกติ ฮ๊ะ

Leave A Reply

Your email address will not be published.

%d bloggers like this: