[MINI Super-HQ] Upgrade (2018) อัพเกรด ครึ่งคนครึ่งปัญญาประดิษฐ์ [1080p] [พากย์ไทย 5.1 + เสียงอังกฤษ DTS] [บรรยายไทย + อังกฤษ] [เสียงไทย + ซับไทย] [OPENLOAD]

2

Upgrade (2018)

โหลดหนัง Upgrade (2018) อัพเกรด ครึ่งคนครึ่งปัญญาประดิษฐ์

Upgrade (2018) 1h 40min | Action, Sci-Fi, Thriller | 14 June 2018 (Australia) Summary: Set in the near-future, technology controls nearly all aspects of life. But when Grey, a self-identified technophobe, has his world turned upside down, his only hope for revenge is an experimental computer chip implant called Stem.
Countries: AustraliaLanguages: English

เรื่องย่อ Upgrade (2018) อัพเกรด ครึ่งคนครึ่งปัญญาประดิษฐ์

ว่าด้วยเรื่องราวของในโลกอนาคต โดยผู้ชายคนหนึ่งต้องสูญเสียภรรยาของเขาให้กับแก๊งโจร และตัวเองยังโดนทำร้ายจนบาดเจ็บสาหัสเดินไม่ได้ แต่ก็มีบริษัทสุดไฮเทคมายื่นขอเสนอให้เขาได้กลับมาเป็นเหมือนเดิมอีกครั้ง ด้วยการเป็นหนูทดลองไมโครชิปเพิ่มประสิทธิภาพร่างกาย หลังจากเขากลับมาเดินได้ เขาก็หวังจะล้างแค้นให้ภรรยาของเขา และจึงพบว่าไมโครชิปนี้สามารถปลดล็อกโหมดความโหดที่ทำให้เขาสามารถต่อสู้ได้โดยไม่ต้องเรียนมา จึงกลายเป็นเรื่องราวการบู๊ระห่ำแบบโหดๆ

Complete name : [MINI Super-HQ]_Upgrade.2018.1080p.BrRip.DTS.x264.TH5.1.One2loadup.com.mkv
Format : Matroska
Format version : Version 4
File size : 4.62 GiB
Duration : 1 h 39 min
Overall bit rate : 6 618 kb/s
Movie name : [MINI Super-HQ]_Upgrade.2018.1080p.BrRip.DTS.x264.TH5.1.One2loadup.com
Encoded date : UTC 2019-07-21 12:10:43
Writing application : mkvmerge v35.0.0 (‘All The Love In The World’) 64-bit
Writing library : libebml v1.3.9 + libmatroska v1.5.2
Cover : Yes
Attachments : small_cover.jpg / small_cover_land.jpg / cover.jpg / cover_land.jpg

Video
ID : 1
Format : AVC
Format/Info : Advanced Video Codec
Format profile : [email protected]
Format settings : CABAC / 1 Ref Frames
Format settings, CABAC : Yes
Format settings, ReFrames : 1 frame
Format settings, GOP : M=1, N=25
Codec ID : V_MPEG4/ISO/AVC
Duration : 1 h 39 min
Bit rate mode : Constant
Bit rate : 5 500 kb/s
Width : 1 920 pixels
Height : 808 pixels
Display aspect ratio : 2.40:1
Frame rate mode : Constant
Frame rate : 29.970 (30000/1001) FPS
Color space : YUV
Chroma subsampling : 4:2:0
Bit depth : 8 bits
Scan type : Progressive
Bits/(Pixel*Frame) : 0.118
Stream size : 3.84 GiB (83%)
Title : [MINI Super-HQ]_Upgrade.2018.1080p.BrRip.DTS.x264.TH5.1.One2loadup.com
Language : English
Default : Yes
Forced : No

Audio #1
ID : 2
Format : AC-3
Format/Info : Audio Coding 3
Commercial name : Dolby Digital
Codec ID : A_AC3
Duration : 1 h 39 min
Bit rate mode : Constant
Bit rate : 448 kb/s
Channel(s) : 6 channels
Channel layout : L R C LFE Ls Rs
Sampling rate : 44.1 kHz
Frame rate : 28.711 FPS (1536 SPF)
Bit depth : 16 bits
Compression mode : Lossy
Stream size : 320 MiB (7%)
Title : 5.1 AC3 Thai 448k 320m
Language : Thai
Service kind : Complete Main
Default : Yes
Forced : No

Audio #2
ID : 3
Format : DTS
Format/Info : Digital Theater Systems
Codec ID : A_DTS
Duration : 1 h 39 min
Bit rate mode : Constant
Bit rate : 661 kb/s
Channel(s) : 6 channels
Channel layout : C L R Ls Rs LFE
Sampling rate : 8 000 Hz
Frame rate : 7.813 FPS (1024 SPF)
Bit depth : 16 bits
Compression mode : Lossy
Stream size : 473 MiB (10%)
Title : dts 5.1 Eng 8000-472m
Language : English
Default : No
Forced : No

Text #1
ID : 4
Format : VobSub
Muxing mode : zlib
Codec ID : S_VOBSUB
Codec ID/Info : Picture based subtitle format used on DVDs
Duration : 1 h 33 min
Bit rate : 10.2 kb/s
Count of elements : 1324
Stream size : 6.77 MiB (0%)
Language : English
Default : No
Forced : No

Text #2
ID : 5
Format : VobSub
Muxing mode : zlib
Codec ID : S_VOBSUB
Codec ID/Info : Picture based subtitle format used on DVDs
Duration : 1 h 34 min
Bit rate : 7 132 b/s
Count of elements : 1294
Stream size : 4.80 MiB (0%)
Title : Thai.VOB
Language : Thai
Default : No
Forced : No

Text #3
ID : 6
Format : UTF-8
Codec ID : S_TEXT/UTF8
Codec ID/Info : UTF-8 Plain Text
Duration : 1 h 34 min
Bit rate : 118 b/s
Count of elements : 1293
Stream size : 81.6 KiB (0%)
Title : Thai.SRT
Language : Thai
Default : Yes
Forced : Yes

Menu
00:00:00.000 : en:00:00:00.000
00:05:38.296 : en:00:05:38.296
00:09:04.919 : en:00:09:04.919
00:15:26.759 : en:00:15:26.759
00:18:42.705 : en:00:18:42.705
00:21:43.636 : en:00:21:43.636
00:28:37.382 : en:00:28:37.382
00:34:42.622 : en:00:34:42.622
00:41:17.058 : en:00:41:17.058
00:47:55.623 : en:00:47:55.623
00:51:14.530 : en:00:51:14.530
00:56:58.457 : en:00:56:58.457
01:01:34.566 : en:01:01:34.566
01:05:22.168 : en:01:05:22.168
01:09:10.938 : en:01:09:10.938
01:16:13.194 : en:01:16:13.194
01:20:17.104 : en:01:20:17.104
01:25:41.928 : en:01:25:41.928
01:31:45.250 : en:01:31:45.250
01:33:57.632 : en:01:33:57.632

DOWNLOAD


PART01 |||| PART02 |||| PART03 |||| PART04 |||| PART05

PART01 |||| PART02 |||| PART03 |||| PART04 |||| PART05

PART01 |||| PART02 |||| PART03 |||| PART04 |||| PART05

PART01 |||| PART02 |||| PART03 |||| PART04 |||| PART05


2 Comments
  1. Dragontheater says

    ภาพกระตุกครับ

    1. Admin
      Admin says

      กระตุกช่วงไหนฮ๊ะ

Leave A Reply

Your email address will not be published.

%d bloggers like this: