โหลดหนัง HD MINI-HD SUPER-HQ Full-HD 1080p VIP Master Zoom ซูม หนังใหม่ ออนไลน์ มาสเตอร์ ไทย จีน ฝรั่ง การ์ตูน

[MINI Super-HQ] Transformers (2007) ทรานส์ฟอร์มเมอร์ส มหาวิบัติจักรกลสังหารถล่มจักรวาล ภาค 1 [1080p] [พากย์ไทย 5.1 + อังกฤษ DTS] [BluRay.DTS.x264] [บรรยายไทย + อังกฤษ] [เสียงไทยมาสเตอร์ + ซับไทย]

0

Transformers 1 (2007) ทรานส์ฟอร์มเมอร์ส อภิมหาสงครามแค้น ภาค 1

โหลดหนัง  Transformers (2007) ทรานส์ฟอร์มเมอร์ส มหาวิบัติจักรกลสังหารถล่มจักรวาล ภาค 1

เรื่องย่อ Transformers (2007) ทรานส์ฟอร์มเมอร์ส มหาวิบัติจักรกลสังหารถล่มจักรวาล ภาค 1

เป็นมหันตภัยร้ายแรงอีกครั้งที่โลกต้องเผชิญกับสงครา มที่น่ากลัวที่สุด ที่อุบัติขึ้นจากอภิมหาสงครามระหว่างกาแล็คซี่ของหุ่ นยนต์สองเชื้อชาติ มันคือสงครามล้างผลาญครั้งใหญ่ของหุ่นยนต์ฝ่ายธรรมะแ ละอธรรมที่มีเทคโนโลยี เหนือล้ำกว่าหุ่นยนต์ทั่วไปที่เรารู้จัก นั่นคือ ความสามารถพิเศษในการแปลงรูปร่างเป็นสิ่งต่างๆได้ เช่น รถ, เครื่องบิน และเครื่องจักรกลไฮเทคต่างๆ ที่น่าสะพรึงกลัวที่สุดคือ พวกมันมีเป้าหมายในการยึดครองโลกซึ่งยังมีแหล่งพลังง านที่สำคัญกับเผ่า พันธุ์ของพวกมัน ทำให้โลกต้องตกอยู่ในวังวนของอภิมหาสงครามนี้ และต้องเผชิญหน้ากับหายนะใหญ่หลวงกว่าวิกฤตการณ์ครั้ งไหนๆที่เราเคยเจอ

Complete name : [MINI Super-HQ]_Transformers.2007.1080p.BluRay.DTS.x264.One2loadup.com.mkv
Format : Matroska
Format version : Version 4 / Version 2
File size : 4.67 GiB
Duration : 2 h 23 min
Overall bit rate mode : Variable
Overall bit rate : 4 659 kb/s
Movie name : [MINI Super-HQ]_Transformers.2007.1080p.BluRay.DTS.x264.One2loadup.com
Encoded date : UTC 2010-02-22 21:41:31
Writing application : mkvmerge v5.9.0 (‘On The Loose’) built on Dec 9 2012 15:37:01
Writing library : libebml v1.3.0 + libmatroska v1.4.0

Video
ID : 1
Format : AVC
Format/Info : Advanced Video Codec
Format profile : [email protected]
Format settings, CABAC : Yes
Format settings, RefFrames : 4 frames
Codec ID : V_MPEG4/ISO/AVC
Duration : 2 h 23 min
Bit rate mode : Variable
Bit rate : 3 200 kb/s
Maximum bit rate : 100.0 Mb/s
Width : 1 920 pixels
Height : 800 pixels
Display aspect ratio : 2.40:1
Frame rate mode : Constant
Frame rate : 23.976 FPS
Color space : YUV
Chroma subsampling : 4:2:0
Bit depth : 8 bits
Scan type : Progressive
Bits/(Pixel*Frame) : 0.087
Stream size : 3.18 GiB (68%)
Title : [MINI Super-HQ]_Transformers.2007.1080p.BluRay.DTS.x264.One2loadup.com
Writing library : x264 core 130 r2273 b3065e6
Encoding settings : cabac=1 / ref=4 / deblock=1:0:0 / analyse=0x3:0x133 / me=umh / subme=11 / psy=1 / psy_rd=1.00:0.15 / mixed_ref=1 / me_range=32 / chroma_me=1 / trellis=2 / 8x8dct=1 / cqm=0 / deadzone=21,11 / fast_pskip=1 / chroma_qp_offset=-3 / threads=16 / lookahead_threads=1 / sliced_threads=0 / nr=0 / decimate=1 / interlaced=0 / bluray_compat=0 / constrained_intra=0 / bframes=3 / b_pyramid=2 / b_adapt=2 / b_bias=0 / direct=3 / weightb=1 / open_gop=0 / weightp=2 / keyint=250 / keyint_min=24 / scenecut=40 / intra_refresh=0 / rc_lookahead=60 / rc=2pass / mbtree=1 / bitrate=3200 / ratetol=1.0 / qcomp=0.60 / qpmin=0 / qpmax=69 / qpstep=4 / cplxblur=20.0 / qblur=0.5 / vbv_maxrate=99999 / vbv_bufsize=99999 / nal_hrd=vbr / ip_ratio=1.40 / aq=1:1.00
Language : English
Default : Yes
Forced : No

Audio #1
ID : 2
Format : AC-3
Format/Info : Audio Coding 3
Format settings, Endianness : Big
Codec ID : A_AC3
Duration : 2 h 23 min
Bit rate mode : Constant
Bit rate : 640 kb/s
Channel(s) : 6 channels
Channel positions : Front: L C R, Side: L R, LFE
Sampling rate : 48.0 kHz
Frame rate : 31.250 FPS (1536 SPF)
Bit depth : 16 bits
Compression mode : Lossy
Stream size : 657 MiB (14%)
Title : [THAI AC3 FROM BLU-RAY MASTER]
Language : Thai
Service kind : Complete Main
Default : Yes
Forced : No

Audio #2
ID : 3
Format : DTS
Format/Info : Digital Theater Systems
Mode : 16
Format settings, Endianness : Big
Codec ID : A_DTS
Duration : 2 h 23 min
Bit rate mode : Constant
Bit rate : 755 kb/s
Channel(s) : 6 channels
Channel positions : Front: L C R, Side: L R, LFE
Sampling rate : 48.0 kHz
Frame rate : 93.750 FPS (512 SPF)
Bit depth : 24 bits
Compression mode : Lossy
Stream size : 774 MiB (16%)
Title : eng dts
Language : English
Default : No
Forced : No

Text #1
ID : 4
Format : VobSub
Codec ID : S_VOBSUB
Codec ID/Info : Picture based subtitle format used on DVDs
Title : [SUB THAI 480P FROM BLU-RAY]
Language : Thai
Default : No
Forced : No

Text #2
ID : 5
Format : VobSub
Codec ID : S_VOBSUB
Codec ID/Info : Picture based subtitle format used on DVDs
Title : [SUB THAI 480P FROM BLU-RAY] UNDER
Language : Thai
Default : No
Forced : No

Text #3
ID : 6
Format : VobSub
Codec ID : S_VOBSUB
Codec ID/Info : Picture based subtitle format used on DVDs
Title : [SUB THAI 1080P FROM BLU-RAY]
Language : Thai
Default : No
Forced : No

Text #4
ID : 7
Format : PGS
Codec ID : S_HDMV/PGS
Codec ID/Info : Picture based subtitle format used on BDs/HD-DVDs
Title : [SUB THAI PGS FROM BLU-RAY]
Language : Thai
Default : No
Forced : No

Text #5
ID : 8
Format : PGS
Codec ID : S_HDMV/PGS
Codec ID/Info : Picture based subtitle format used on BDs/HD-DVDs
Title : [SUB THAI PGS FROM BLU-RAY] UNDER
Language : Thai
Default : No
Forced : No

Text #6
ID : 9
Format : UTF-8
Codec ID : S_TEXT/UTF8
Codec ID/Info : UTF-8 Plain Text
Title : ENG SRT
Language : English
Default : No
Forced : No

 

Transformers (2007) ทรานส์ฟอร์มเมอร์ส มหาวิบัติจักรกลสังหารถล่มจักรวาล ภาค 1

DOWNLOAD


PART01 |||| PART02 |||| PART03 |||| PART04 |||| PART05

PART01 |||| PART02 |||| PART03 |||| PART04 |||| PART05

PART01 |||| PART02 |||| PART03 |||| PART04 |||| PART05

PART01 |||| PART02 |||| PART03 |||| PART04 |||| PART05


Leave A Reply

Your email address will not be published.

%d bloggers like this: