[MINI Super-HQ] Tinker Bell Secret Of The Wings (2012) ทิงเกอร์เบลล์ ความลับของปีกนางฟ้า ภาค 4 [1080p] [พากย์ไทย 5.1 + เสียงอังกฤษ DTS] [บรรยายไทย + อังกฤษ] [เสียงไทย + ซับไทย] [ONE2UP]

0

Tinker Bell Secret Of The Wings (2012) ทิงเกอร์เบลล์ ความลับของปีกนางฟ้า ภาค 4

โหลดหนัง Tinker Bell Secret Of The Wings (2012) ทิงเกอร์เบลล์ ความลับของปีกนางฟ้า ภาค 4

Secret of the Wings (2012) 1h 15min | Animation, Family, Fantasy | 10 October 2012 (Netherlands) Summary: Tinkerbell wanders into the forbidden Winter woods and meets Periwinkle. Together they learn the secret of their wings and try to unite the warm fairies and the winter fairies to help Pixie Hollow.
Countries: USA, IndiaLanguages: English

เรื่องย่อ Tinker Bell Secret Of The Wings (2012) ทิงเกอร์เบลล์ ความลับของปีกนางฟ้า ภาค 4

ดิสนีย์ขอเชิญคุณเดินทางสู่โลกอันน่าพิศวงในแอนิเมชั่นที่จะทำให้คุณตื่นตาจนแทบลืมหายใจ สำหรับเหล่าภูตน้อยแห่งพิกซี่ฮอลโลว์ป่าวินเทอร์วู้ดส์ คือเสถานที่ต้องห้ามจนเมื่อพลังลึกลับได้พาทิงเกอร์เบลข้ามพรมแดนไปยังโลกที่ไม่มีใครรู้จักแห่งนี้ เธอได้พบกับภูติน้ำแข็งนามเพอริวิงเคิล ซึ่งเป็นผู้เดียวที่สามารถไขปริศนาแห่งความลับของปีกได้

Complete name : [MINI Super-HQ]_4.Tinker.Bell.And.The.Secret.of.the.Wings.2012.1080p.BrRip.DTS.x264.One2loadup.com.mkv
Format : Matroska
Format version : Version 4
File size : 4.24 GiB
Duration : 1 h 15 min
Overall bit rate : 8 078 kb/s
Movie name : [MINI Super-HQ]_4.Tinker.Bell.And.The.Secret.of.the.Wings.2012.1080p.BrRip.DTS.x264.One2loadup.com
Encoded date : UTC 2017-03-12 07:48:43 / UTC 2017-03-12T06:42:16Z
Writing application : mkvmerge v8.3.0 (‘Over the Horizon’) 64bit
Writing library : libebml v1.3.1 + libmatroska v1.4.2 / Lavf55.12.0

Video
ID : 1
Format : AVC
Format/Info : Advanced Video Codec
Format profile : [email protected]
Format settings : CABAC / 4 Ref Frames
Format settings, CABAC : Yes
Format settings, ReFrames : 4 frames
Codec ID : V_MPEG4/ISO/AVC
Duration : 1 h 15 min
Bit rate : 5 769 kb/s
Width : 1 920 pixels
Height : 1 080 pixels
Display aspect ratio : 16:9
Frame rate mode : Constant
Frame rate : 23.976 (24000/1001) FPS
Color space : YUV
Chroma subsampling : 4:2:0
Bit depth : 8 bits
Scan type : Progressive
Bits/(Pixel*Frame) : 0.116
Stream size : 3.02 GiB (71%)
Title : [MINI Super-HQ]_4.Tinker.Bell.And.The.Secret.of.the.Wings.2012.1080p.BrRip.DTS.x264.One2loadup.com
Writing library : x264 core 142 r2479 dd79a61
Encoding settings : cabac=1 / ref=1 / deblock=1:0:0 / analyse=0x1:0x111 / me=hex / subme=2 / psy=1 / psy_rd=1.00:0.00 / mixed_ref=0 / me_range=16 / chroma_me=1 / trellis=0 / 8x8dct=0 / cqm=0 / deadzone=21,11 / fast_pskip=1 / chroma_qp_offset=0 / threads=12 / lookahead_threads=4 / sliced_threads=0 / nr=0 / decimate=1 / interlaced=0 / bluray_compat=0 / constrained_intra=0 / bframes=3 / b_pyramid=2 / b_adapt=1 / b_bias=0 / direct=1 / weightb=1 / open_gop=0 / weightp=1 / keyint=240 / keyint_min=24 / scenecut=40 / intra_refresh=0 / rc_lookahead=10 / rc=crf / mbtree=1 / crf=20.0 / qcomp=0.60 / qpmin=0 / qpmax=69 / qpstep=4 / vbv_maxrate=20000 / vbv_bufsize=25000 / crf_max=0.0 / nal_hrd=none / filler=0 / ip_ratio=1.40 / aq=1:1.00
Language : Thai
Default : Yes
Forced : Yes
Color range : Limited
Color primaries : BT.709
Transfer characteristics : BT.709
Matrix coefficients : BT.709

Audio #1
ID : 2
Format : DTS
Format/Info : Digital Theater Systems
Codec ID : A_DTS
Duration : 1 h 15 min
Bit rate mode : Constant
Bit rate : 1 509 kb/s
Channel(s) : 6 channels
Channel layout : C L R Ls Rs LFE
Sampling rate : 48.0 kHz
Frame rate : 93.750 FPS (512 SPF)
Bit depth : 24 bits
Compression mode : Lossy
Stream size : 810 MiB (19%)
Title : Surround
Language : English
Default : No
Forced : No

Audio #2
ID : 3
Format : AC-3
Format/Info : Audio Coding 3
Commercial name : Dolby Digital
Codec ID : A_AC3
Duration : 1 h 15 min
Bit rate mode : Constant
Bit rate : 640 kb/s
Channel(s) : 6 channels
Channel layout : L R C LFE Ls Rs
Sampling rate : 48.0 kHz
Frame rate : 31.250 FPS (1536 SPF)
Bit depth : 16 bits
Compression mode : Lossy
Stream size : 344 MiB (8%)
Title : Surround
Language : Thai
Service kind : Complete Main
Default : Yes
Forced : Yes

Text #1
ID : 4
Format : PGS
Muxing mode : zlib
Codec ID : S_HDMV/PGS
Codec ID/Info : Picture based subtitle format used on BDs/HD-DVDs
Language : Thai
Default : No
Forced : Yes

Text #2
ID : 5
Format : PGS
Muxing mode : zlib
Codec ID : S_HDMV/PGS
Codec ID/Info : Picture based subtitle format used on BDs/HD-DVDs
Language : Thai
Default : Yes
Forced : Yes

Text #3
ID : 6
Format : PGS
Muxing mode : zlib
Codec ID : S_HDMV/PGS
Codec ID/Info : Picture based subtitle format used on BDs/HD-DVDs
Language : English
Default : No
Forced : No

Menu
00:00:00.000 : :Chapter 1
00:05:53.120 : :Chapter 2
00:09:04.186 : :Chapter 3
00:14:10.617 : :Chapter 4
00:20:32.582 : :Chapter 5
00:28:17.505 : :Chapter 6
00:34:46.310 : :Chapter 7
00:40:26.566 : :Chapter 8
00:48:07.235 : :Chapter 9
00:53:50.786 : :Chapter 10
01:00:37.276 : :Chapter 11
01:07:47.664 : :Chapter 12

DOWNLOAD


PART01 |||| PART02 |||| PART03 |||| PART04 |||| PART05

PART01 |||| PART02 |||| PART03 |||| PART04 |||| PART05

PART01 |||| PART02 |||| PART03 |||| PART04 |||| PART05

PART01 |||| PART02 |||| PART03 |||| PART04 |||| PART05


Leave A Reply

Your email address will not be published.

%d bloggers like this: