โหลดหนัง HD MINI-HD SUPER-HQ Full-HD 1080p VIP Master Zoom ซูม หนังใหม่ ออนไลน์ มาสเตอร์ ไทย จีน ฝรั่ง การ์ตูน

[MINI Super-HQ] Tinker Bell and the Great Fairy Rescue (2010) ทิงเกอร์เบลล์ ผจญภัยแดนมนุษย์ ภาค 3 [1080p] [พากย์ไทย 5.1 + เสียงอังกฤษ DTS] [บรรยายไทย + อังกฤษ] [เสียงไทย + ซับไทย] [ONE2UP]

โหลดหนัง  Tinker Bell and the Great Fairy Rescue (2010) ทิงเกอร์เบลล์ ผจญภัยแดนมนุษย์ ภาค 3

เรื่องย่อ Tinker Bell and the Great Fairy Rescue (2010) ทิงเกอร์เบลล์ ผจญภัยแดนมนุษย์ ภาค 3

จะเกิดอะไรขึ้นถ้าคุณพบภูติตัวจิ๋ว? จับตาดูเหตุการณ์ระดับประวัติศาสตร์ครั้งนี้ให้ดีล่ะ เพราะทิงเกอร์เบลล์จะได้พบกับมนุษย์เป็นครั้งแรกในแบบที่คุณไม่คาดคิดย้อนอดีตก่อนที่เวนดี้ และแก๊งค์เด็กหลงทางจะรู้จักกันทิงเกอร์เบลล์ได้พบกับลิซซี่ หนูน้อยที่ศรัทธาในพลังของผงพิกซี่และโลกของภูติจิ๋ว เมื่อเหล่าพิกซี่โบยบินผ่านแปลงดอกไม้ในอังกฤษในช่วงฤดูร้อนนี่คือเเวลาที่อัศจรรย์ของโลกทั้ง 2 ใบได้เผชิญหน้ากันทิงก์กลายเป็นจำเลยของลิซซี่ที่อยากเห็นและต้องการเพื่อนแก้เหงาแก๊งค์ภูติจิ๋วจึงแท็คทีมออกเดินทางสู่ภารกิจที่เต็มไปด้วยอันตรายเพื่อช่วยเหลือทิงเกอร์เบลล์

Complete name : [MINI Super-HQ]_3.Tinker.Bell.and.the.Great.Fairy.Rescue.2010.1080p.BrRip.DTS.x264.One2loadup.com.mkv
Format : Matroska
Format version : Version 4
File size : 3.54 GiB
Duration : 1 h 16 min
Overall bit rate : 6 622 kb/s
Movie name : [MINI Super-HQ]_3.Tinker.Bell.and.the.Great.Fairy.Rescue.2010.1080p.BrRip.DTS.x264.One2loadup.com
Encoded date : UTC 2017-03-12 07:46:36 / UTC 2017-03-12T05:57:41Z
Writing application : mkvmerge v8.3.0 (‘Over the Horizon’) 64bit
Writing library : libebml v1.3.1 + libmatroska v1.4.2 / Lavf55.12.0

Video
ID : 1
Format : AVC
Format/Info : Advanced Video Codec
Format profile : [email protected]
Format settings : CABAC / 4 Ref Frames
Format settings, CABAC : Yes
Format settings, ReFrames : 4 frames
Codec ID : V_MPEG4/ISO/AVC
Bit rate : 4 342 kb/s
Width : 1 916 pixels
Height : 1 080 pixels
Display aspect ratio : 16:9
Frame rate mode : Variable
Color space : YUV
Chroma subsampling : 4:2:0
Bit depth : 8 bits
Scan type : Progressive
Title : [MINI Super-HQ]_3.Tinker.Bell.and.the.Great.Fairy.Rescue.2010.1080p.BrRip.DTS.x264.One2loadup.com
Writing library : x264 core 142 r2479 dd79a61
Encoding settings : cabac=1 / ref=1 / deblock=1:0:0 / analyse=0x1:0x111 / me=hex / subme=2 / psy=1 / psy_rd=1.00:0.00 / mixed_ref=0 / me_range=16 / chroma_me=1 / trellis=0 / 8x8dct=0 / cqm=0 / deadzone=21,11 / fast_pskip=1 / chroma_qp_offset=0 / threads=12 / lookahead_threads=4 / sliced_threads=0 / nr=0 / decimate=1 / interlaced=0 / bluray_compat=0 / constrained_intra=0 / bframes=3 / b_pyramid=2 / b_adapt=1 / b_bias=0 / direct=1 / weightb=1 / open_gop=0 / weightp=1 / keyint=240 / keyint_min=24 / scenecut=40 / intra_refresh=0 / rc_lookahead=10 / rc=crf / mbtree=1 / crf=20.0 / qcomp=0.60 / qpmin=0 / qpmax=69 / qpstep=4 / vbv_maxrate=20000 / vbv_bufsize=25000 / crf_max=0.0 / nal_hrd=none / filler=0 / ip_ratio=1.40 / aq=1:1.00
Language : Thai
Default : Yes
Forced : Yes
Color range : Limited
Color primaries : BT.709
Transfer characteristics : BT.709
Matrix coefficients : BT.709

Audio #1
ID : 2
Format : DTS
Format/Info : Digital Theater Systems
Codec ID : A_DTS
Duration : 1 h 16 min
Bit rate mode : Constant
Bit rate : 1 509 kb/s
Channel(s) : 6 channels
Channel layout : C L R Ls Rs LFE
Sampling rate : 48.0 kHz
Frame rate : 93.750 FPS (512 SPF)
Bit depth : 24 bits
Compression mode : Lossy
Stream size : 825 MiB (23%)
Title : Surround
Language : English
Default : No
Forced : No

Audio #2
ID : 3
Format : AC-3
Format/Info : Audio Coding 3
Commercial name : Dolby Digital
Codec ID : A_AC3
Duration : 1 h 16 min
Bit rate mode : Constant
Bit rate : 640 kb/s
Channel(s) : 6 channels
Channel layout : L R C LFE Ls Rs
Sampling rate : 48.0 kHz
Frame rate : 31.250 FPS (1536 SPF)
Bit depth : 16 bits
Compression mode : Lossy
Stream size : 350 MiB (10%)
Title : Surround
Language : Thai
Service kind : Complete Main
Default : Yes
Forced : Yes

Text #1
ID : 4
Format : PGS
Muxing mode : zlib
Codec ID : S_HDMV/PGS
Codec ID/Info : Picture based subtitle format used on BDs/HD-DVDs
Language : Thai
Default : No
Forced : Yes

Text #2
ID : 5
Format : PGS
Muxing mode : zlib
Codec ID : S_HDMV/PGS
Codec ID/Info : Picture based subtitle format used on BDs/HD-DVDs
Language : Thai
Default : Yes
Forced : Yes

Text #3
ID : 6
Format : PGS
Muxing mode : zlib
Codec ID : S_HDMV/PGS
Codec ID/Info : Picture based subtitle format used on BDs/HD-DVDs
Language : English
Default : No
Forced : No

Menu
00:00:00.000 : :Chapter 1
00:05:40.649 : :Chapter 2
00:11:25.327 : :Chapter 3
00:16:54.989 : :Chapter 4
00:22:37.081 : :Chapter 5
00:27:39.633 : :Chapter 6
00:35:22.930 : :Chapter 7
00:42:18.303 : :Chapter 8
00:48:14.367 : :Chapter 9
00:56:11.260 : :Chapter 10
00:59:59.029 : :Chapter 11
01:09:47.784 : :Chapter 12

DOWNLOAD


PART01 |||| PART02 |||| PART03 |||| PART04

PART01 |||| PART02 |||| PART03 |||| PART04

PART01 |||| PART02 |||| PART03 |||| PART04

PART01 |||| PART02 |||| PART03 |||| PART04


Leave A Reply

Your email address will not be published.

%d bloggers like this: