เว็บโหลดหนัง HD MINI-HD SUPER-HQ Full-HD 1080p One2up VIP Master Zoom ซูม หนังใหม่ ออนไลน์ มาสเตอร์ ไทย จีน ฝรั่ง การ์ตูน

[MINI Super-HQ] Thor: The Dark World (2013) ธอร์ 2 เทพเจ้าสายฟ้าโลกาทมิฬ [1080p] [พากย์ไทย DTS + อังกฤษ DTS] [BrRip.x264.DTS] [บรรยายไทย + อังกฤษ] [เสียงไทย + ซับไทย] [ONE2UP]

4

Thor: The Dark World (2013) ธอร์ 2 เทพเจ้าสายฟ้าโลกาทมิฬ

โหลดหนัง Thor: The Dark World (2013) ธอร์ 2 เทพเจ้าสายฟ้าโลกาทมิฬ 

เรื่องย่อ Thor: The Dark World (2013) ธอร์ 2 เทพเจ้าสายฟ้าโลกาทมิฬ

สานต่อเรื่องราวการผจญภัยบนจอใหญ่ของธอร์ อเวนเจอร์ผู้ยิ่งใหญ่ ผู้ที่ต่อสู้เพื่อปกป้องโลกและดินแดนทั้ง 9 จากศัตรูลึกลับที่หมายจะครอบครองจักรวาล ในการต่อสู้จาก ธอร์ ภาค 1 และ มาร์เวลส์ ดิ อเวนเจอร์ส ธอร์ ต่อสู้เพื่อนำความสงบ กลับมาสู่จักรวาล แต่ชนเผ่าโบราณที่นำโดย มาเลคิธ ผู้เคียดแค้น ได้กลับมา เพื่อทำให้จักรวาลกลับเข้าสู่ความมืดมิดอีกครั้ง การเผชิญหน้ากับศัตรูที่แม้แต่ โอดิน และ แอสการ์ด ไม่สามารถรับมือได้ ธอร์ต้องมุ่งหน้าสู่การเดินทางที่เต็มไปด้วยอันตรายแ ละเป็นส่วนตัว เมื่อการเดินทางครั้งนี้ได้นำเขากลับมาพบกับเจน ฟอสเตอร์ และบังคับให้เขาต้องเสียสละทุกสิ่งอย่างเพื่อปกป้องพ วกเราทั้งหมด

Complete name : [MINI Super-HQ]_Thor.The.Dark.World.2013.1080p.BrRip.x264.DTS.One2loadup.com.mkv
Format : Matroska
Format version : Version 4 / Version 2
File size : 4.13 GiB
Duration : 1 h 52 min
Overall bit rate : 5 276 kb/s
Movie name : [MINI Super-HQ]_Thor.The.Dark.World.2013.1080p.BrRip.x264.DTS.One2loadup.com
Encoded date : UTC 2010-02-22 21:41:31
Writing application : mkvmerge v5.9.0 (‘On The Loose’) built on Dec 9 2012 15:37:01
Writing library : libebml v1.3.0 + libmatroska v1.4.0

Video
ID : 1
Format : AVC
Format/Info : Advanced Video Codec
Format profile : [email protected]
Format settings, CABAC : Yes
Format settings, RefFrames : 4 frames
Codec ID : V_MPEG4/ISO/AVC
Duration : 1 h 52 min
Bit rate : 3 699 kb/s
Width : 1 920 pixels
Height : 800 pixels
Display aspect ratio : 2.40:1
Original display aspect rat : 2.40:1
Frame rate mode : Constant
Frame rate : 23.976 (23976/1000) FPS
Color space : YUV
Chroma subsampling : 4:2:0
Bit depth : 8 bits
Scan type : Progressive
Bits/(Pixel*Frame) : 0.100
Stream size : 2.87 GiB (69%)
Title : [MINI Super-HQ]_Thor.The.Dark.World.2013.1080p.BrRip.x264.DTS.One2loadup.com
Writing library : x264 core 120
Encoding settings : cabac=1 / ref=3 / deblock=1:0:0 / analyse=0x3:0x113 / me=umh / subme=11 / psy=1 / psy_rd=1.00:0.00 / mixed_ref=1 / me_range=32 / chroma_me=1 / trellis=2 / 8x8dct=1 / cqm=0 / deadzone=21,11 / fast_pskip=1 / chroma_qp_offset=-2 / threads=12 / sliced_threads=0 / nr=0 / decimate=1 / interlaced=0 / bluray_compat=0 / constrained_intra=0 / bframes=4 / b_pyramid=2 / b_adapt=2 / b_bias=0 / direct=1 / weightb=1 / open_gop=0 / weightp=2 / keyint=240 / keyint_min=24 / scenecut=40 / intra_refresh=0 / rc_lookahead=50 / rc=2pass / mbtree=1 / bitrate=3699 / ratetol=1.0 / qcomp=0.60 / qpmin=3 / qpmax=69 / qpstep=4 / cplxblur=20.0 / qblur=0.5 / ip_ratio=1.40 / aq=1:1.00
Language : English
Default : Yes
Forced : No
Color range : Limited
Color primaries : BT.709
Transfer characteristics : BT.709
Matrix coefficients : BT.709

Audio #1
ID : 2
Format : DTS
Format/Info : Digital Theater Systems
Mode : 16
Format settings, Endianness : Big
Codec ID : A_DTS
Duration : 1 h 52 min
Bit rate mode : Constant
Bit rate : 755 kb/s
Channel(s) : 6 channels
Channel positions : Front: L C R, Side: L R, LFE
Sampling rate : 48.0 kHz
Frame rate : 93.750 FPS (512 SPF)
Bit depth : 24 bits
Compression mode : Lossy
Delay relative to video : 8 ms
Stream size : 605 MiB (14%)
Title : Thai DTS by Junjao
Language : Thai
Default : Yes
Forced : Yes

Audio #2
ID : 3
Format : DTS
Format/Info : Digital Theater Systems
Mode : 16
Format settings, Endianness : Big
Codec ID : A_DTS
Duration : 1 h 52 min
Bit rate mode : Constant
Bit rate : 755 kb/s
Channel(s) : 6 channels
Channel positions : Front: L C R, Side: L R, LFE
Sampling rate : 48.0 kHz
Frame rate : 93.750 FPS (512 SPF)
Bit depth : 24 bits
Compression mode : Lossy
Stream size : 605 MiB (14%)
Title : English DTS
Language : English
Default : No
Forced : No

Text #1
ID : 4
Format : VobSub
Codec ID : S_VOBSUB
Codec ID/Info : Picture based subtitle format used on DVDs
Title : Thai 480p
Language : Thai
Default : No
Forced : No

Text #2
ID : 5
Format : VobSub
Codec ID : S_VOBSUB
Codec ID/Info : Picture based subtitle format used on DVDs
Title : Thai 720p
Language : Thai
Default : No
Forced : No

Text #3
ID : 6
Format : VobSub
Codec ID : S_VOBSUB
Codec ID/Info : Picture based subtitle format used on DVDs
Title : Thai 1080p BluRay Master
Language : Thai
Default : No
Forced : No

Text #4
ID : 7
Format : VobSub
Codec ID : S_VOBSUB
Codec ID/Info : Picture based subtitle format used on DVDs
Title : Thai 1080p BluRay Master [Out]
Language : Thai
Default : No
Forced : No

Text #5
ID : 8
Format : VobSub
Codec ID : S_VOBSUB
Codec ID/Info : Picture based subtitle format used on DVDs
Title : Thai 1080p BluRay Master [BIG]
Language : Thai
Default : No
Forced : No

Text #6
ID : 9
Format : VobSub
Codec ID : S_VOBSUB
Codec ID/Info : Picture based subtitle format used on DVDs
Title : Thai 1080p BluRay Master [Out & BIG]
Language : Thai
Default : No
Forced : No

Text #7
ID : 10
Format : VobSub
Codec ID : S_VOBSUB
Codec ID/Info : Picture based subtitle format used on DVDs
Title : Thai For Non-English Part Only
Language : Thai
Default : Yes
Forced : Yes

Text #8
ID : 11
Format : PGS
Codec ID : S_HDMV/PGS
Codec ID/Info : Picture based subtitle format used on BDs/HD-DVDs
Title : Thai PGS
Language : Thai
Default : No
Forced : No

Text #9
ID : 12
Format : PGS
Codec ID : S_HDMV/PGS
Codec ID/Info : Picture based subtitle format used on BDs/HD-DVDs
Title : Thai PGS Out
Language : Thai
Default : No
Forced : No

Text #10
ID : 13
Format : VobSub
Codec ID : S_VOBSUB
Codec ID/Info : Picture based subtitle format used on DVDs
Title : English
Language : English
Default : No
Forced : No

 

DOWNLOAD


PART01 |||| PART02 |||| PART03 |||| PART04 |||| PART05

PART01 |||| PART02 |||| PART03 |||| PART04 |||| PART05

PART01 |||| PART02 |||| PART03 |||| PART04 |||| PART05

PART01 |||| PART02 |||| PART03 |||| PART04 |||| PART05


4 Comments
  1. วันชัย สะสมทรัพย์

    part 5 โหลดไม่ได้ครับผม

    1. Admin
      Admin says

      แก้ไขเรียบร้อยฮ๊ะ

  2. Sorawat Promsawad
    Sorawat Promsawad says

    มีพากย์ไทย 5.1 มั๊ยครับ เสียง DTS ผมเปิดกับทีวีไม่ได้อ่ะ

    1. Admin
      Admin says

      ไม่มีไฟล์อะฮ๊ะ ไฟล์ที่มีอยู่ตอนนี้ก็เป็น DTS ทั้งนั้นส่วน 5.1 หาได้ยากเกิ้น ไฟล์มันโดนลบเป็นส่วนใหญ่อะฮ๊ะ

Leave A Reply

Your email address will not be published.

%d bloggers like this: