[MINI Super-HQ] The Wrath (2018) นางอาฆาต [1080p] [พากย์ไทย 5.1 + เสียงเกาหลี 5.1] [บรรยายไทย + อังกฤษ] [เสียงไทย + ซับไทย] [OPENLOAD]

0

The Wrath (2018)

โหลดหนัง The Wrath (2018) นางอาฆาต

Yeo-gok-seong (2018) 1h 34min | Horror, Mystery | 8 November 2018 (South Korea) Summary: In the household of Lee Gyeong-jin, a high-ranking official of Joseon Kingdom, three sons die from an unidentified horror. A woman pregnant with a child of the third son soon learns of the evil spirit that haunts the house.
Countries: South KoreaLanguages: Korean

เรื่องย่อ The Wrath (2018) นางอาฆาต

คอหนังสายหลอนเตรียมปิดท้ายปีด้วยภาพยนตร์พีเรียดสยองขวัญของเกาหลีที่จะมาสร้างปรากฏการณ์อันน่ากลัวที่สุดอย่าง The Wrath (เดอะ แรธ) นางอาฆาตกับการไขปริศนาลึกลับของครอบครัวภายในบ้านหลังหนึ่งที่เต็มไปด้วยความเฮี้ยนทุกรูปแบบโดยเวอร์ชันรีเมคนี้ได้นักร้องเกิร์ลกรุ๊ปแถวหน้าอย่าง ซน นาอึน สมาชิกวง เอ พิงก์ มาร่วมแสดงปะทะฝีมือกับนักแสดงสาวมากความสามารถ ซอ ยองฮี (The Chaser 2008) อีกด้วย บ้านหลังนี้อยู่เย็นเป็นศพ จงระวังตัวไว้ให้ดี เพราะคุณอาจกลายเป็นศพเมื่อย่างก้าวเข้ามา The Wrath นางอาฆาตเล่าถึงเรื่องราวของ อ๊กบุน (ซน นาอึน) สาวน้อยบ้านนอกที่ถูกขายให้เป็นลูกสะใภ้ของลูกชายคนสุดท้ายในตระกูลที่ทรงอำนาจและร่ำรวยที่สุดในอาณาจักร โชซอนแต่สามีของเธอกลับเสียชีวิตตั้งแต่คืนแรก แถมยังมีการตายแบบปริศนาเกิดขึ้นในบ้านหลังใหม่นี้ เธอจึงเริ่มออกสำรวจเพื่อไขปริศนาแต่ในขณะเดียวกันก็ต้องรับมือกับ คุณนายชิน (ซอ ยองฮี) แม่สามีและผู้นำตระกูล สตรีทรงอำนาจซึ่งมีความลึกลับบางอย่างซ่อนไว้อีกทั้ง แฮ ชุนบิ (อี แทรี) หมอผีที่เก่งที่สุดในโชซอนผู้สำรวจบ้านหลังนี้ยังได้ ทักบอกความผวาว่า บ้านนี้ไม่ใช่ของคนมีชีวิตอีกต่อไป!!!

Complete name : [MINI Super-HQ]_The.Wrath.2018.1080p.BrRip.DTS.x264.TH5.1.One2loadup.com.mkv
Format : Matroska
Format version : Version 4
File size : 1.26 GiB
Duration : 1 h 34 min
Overall bit rate : 1 901 kb/s
Movie name : [MINI Super-HQ]_The.Wrath.2018.1080p.BrRip.DTS.x264.TH5.1.One2loadup.com
Encoded date : UTC 2010-02-22 21:41:31
Writing application : mkvmerge v5.9.0 (‘On The Loose’) built on Dec 9 2012 15:37:01
Writing library : libebml v1.3.0 + libmatroska v1.4.0
IsTruncated : Yes

Video
ID : 1
Format : AVC
Format/Info : Advanced Video Codec
Format profile : [email protected]
Format settings : CABAC / 4 Ref Frames
Format settings, CABAC : Yes
Format settings, ReFrames : 4 frames
Codec ID : V_MPEG4/ISO/AVC
Bit rate : 968 kb/s
Nominal bit rate : 4 647 kb/s
Width : 1 920 pixels
Height : 804 pixels
Display aspect ratio : 2.40:1
Frame rate mode : Variable
Color space : YUV
Chroma subsampling : 4:2:0
Bit depth : 8 bits
Scan type : Progressive
Title : [MINI Super-HQ]_The.Wrath.2018.1080p.BrRip.DTS.x264.TH5.1.One2loadup.com
Writing library : x264 core 130 r2273 b3065e6
Encoding settings : cabac=1 / ref=3 / deblock=1:0:0 / analyse=0x3:0x113 / me=umh / subme=10 / psy=1 / psy_rd=1.00:0.00 / mixed_ref=1 / me_range=16 / chroma_me=1 / trellis=2 / 8x8dct=1 / cqm=0 / deadzone=21,11 / fast_pskip=1 / chroma_qp_offset=-2 / threads=12 / lookahead_threads=1 / sliced_threads=0 / nr=0 / decimate=1 / interlaced=0 / bluray_compat=0 / constrained_intra=0 / bframes=3 / b_pyramid=2 / b_adapt=1 / b_bias=0 / direct=1 / weightb=1 / open_gop=0 / weightp=2 / keyint=300 / keyint_min=30 / scenecut=40 / intra_refresh=0 / rc_lookahead=40 / rc=2pass / mbtree=1 / bitrate=4647 / ratetol=1.0 / qcomp=0.60 / qpmin=0 / qpmax=69 / qpstep=4 / cplxblur=20.0 / qblur=0.5 / ip_ratio=1.40 / aq=1:1.00
Language : Korean
Default : Yes
Forced : No
Color range : Limited
Color primaries : BT.709
Transfer characteristics : BT.709
Matrix coefficients : BT.709

Audio #1
ID : 2
Format : AC-3
Format/Info : Audio Coding 3
Commercial name : Dolby Digital
Codec ID : A_AC3
Duration : 1 h 34 min
Bit rate mode : Constant
Bit rate : 448 kb/s
Channel(s) : 6 channels
Channel layout : L R C LFE Ls Rs
Sampling rate : 48.0 kHz
Frame rate : 31.250 FPS (1536 SPF)
Bit depth : 16 bits
Compression mode : Lossy
Stream size : 303 MiB (24%)
Title : Thai DVD Master
Language : Thai
Service kind : Complete Main
Default : Yes
Forced : Yes

Audio #2
ID : 3
Format : AC-3
Format/Info : Audio Coding 3
Commercial name : Dolby Digital
Codec ID : A_AC3
Duration : 1 h 34 min
Bit rate mode : Constant
Bit rate : 448 kb/s
Channel(s) : 6 channels
Channel layout : L R C LFE Ls Rs
Sampling rate : 48.0 kHz
Frame rate : 31.250 FPS (1536 SPF)
Bit depth : 16 bits
Compression mode : Lossy
Stream size : 303 MiB (24%)
Title : Korean AC3 5.1
Language : Korean
Service kind : Complete Main
Default : No
Forced : No

Text #1
ID : 4
Format : VobSub
Codec ID : S_VOBSUB
Codec ID/Info : Picture based subtitle format used on DVDs
Title : Thai 480p From DVD Master
Language : Thai
Default : No
Forced : No

Text #2
ID : 5
Format : VobSub
Codec ID : S_VOBSUB
Codec ID/Info : Picture based subtitle format used on DVDs
Title : Thai 720p
Language : Thai
Default : No
Forced : No

Text #3
ID : 6
Format : VobSub
Codec ID : S_VOBSUB
Codec ID/Info : Picture based subtitle format used on DVDs
Title : Thai 1080p
Language : Thai
Default : Yes
Forced : Yes

Text #4
ID : 7
Format : VobSub
Codec ID : S_VOBSUB
Codec ID/Info : Picture based subtitle format used on DVDs
Title : Thai 1080p Yellow
Language : Thai
Default : No
Forced : No

Text #5
ID : 8
Format : VobSub
Codec ID : S_VOBSUB
Codec ID/Info : Picture based subtitle format used on DVDs
Title : Thai 1080p Out
Language : Thai
Default : No
Forced : No

Text #6
ID : 9
Format : VobSub
Codec ID : S_VOBSUB
Codec ID/Info : Picture based subtitle format used on DVDs
Title : Thai 1080p BIG
Language : Thai
Default : No
Forced : No

Text #7
ID : 10
Format : VobSub
Codec ID : S_VOBSUB
Codec ID/Info : Picture based subtitle format used on DVDs
Title : Thai 1080p Out [BIG]
Language : Thai
Default : No
Forced : No

Text #8
ID : 11
Format : PGS
Codec ID : S_HDMV/PGS
Codec ID/Info : Picture based subtitle format used on BDs/HD-DVDs
Title : Thai PGS
Language : Thai
Default : No
Forced : No

Text #9
ID : 12
Format : PGS
Codec ID : S_HDMV/PGS
Codec ID/Info : Picture based subtitle format used on BDs/HD-DVDs
Title : Thai PGS Yellow
Language : Thai
Default : No
Forced : No

Text #10
ID : 13
Format : PGS
Codec ID : S_HDMV/PGS
Codec ID/Info : Picture based subtitle format used on BDs/HD-DVDs
Title : Thai PGS Out
Language : Thai
Default : No
Forced : No

Text #11
ID : 14
Format : VobSub
Codec ID : S_VOBSUB
Codec ID/Info : Picture based subtitle format used on DVDs
Title : English
Language : English
Default : No
Forced : No

DOWNLOAD


PART01 |||| PART02 |||| PART03 |||| PART04

PART01 |||| PART02 |||| PART03 |||| PART04

PART01 |||| PART02 |||| PART03 |||| PART04

PART01 |||| PART02 |||| PART03 |||| PART04


Leave A Reply

Your email address will not be published.

%d bloggers like this: