โหลดหนัง HD MINI-HD SUPER-HQ Full-HD 1080p VIP Master Zoom ซูม หนังใหม่ ออนไลน์ มาสเตอร์ ไทย จีน ฝรั่ง การ์ตูน

[MINI Super-HQ] The Wolfman (2010) มนุษย์หมาป่า ราชันย์อำมหิต [1080p] [UNRATED] [พากย์ไทย 5.1 + อังกฤษ DTS] [บรรยายไทย + อังกฤษ] [เสียงไทย + ซับไทย]

0

โหลดหนัง  The Wolfman (2010) มนุษย์หมาป่า ราชันย์อำมหิต

เรื่องย่อ The Wolfman (2010) มนุษย์หมาป่า ราชันย์อำมหิต

ลอว์เรนซ์ ทัลบอท (เบนิซิโอ เดล โทโร) ชายมั่งคั่งผู้มีอดีตเลวร้ายฝังใจ ได้กลับไปยังคฤหาสน์ของครอบครัวที่เขาจากมาตั้งแต่วัยเด็ก เพื่อช่วยตามหาพี่ชายที่หายตัวไป ตามคำอ้อนวอนของ เกว็น คอนลิฟฟ์ (เอมิลี่ บลันท์) คู่หมั้นของพี่ชาย การกลับมาในครั้งนี้ทำให้เขาได้พบกับ เซอร์ จอห์น ทัลบอท (แอนโทนี่ ฮอพกินส์) พ่อผู้ห่างเหินอีกครั้ง ขณะที่ลอว์เรนซ์กำลังตามหาพี่ชาย เขาก็ได้ยินเรื่องราวเกี่ยวกับคำสาปที่ทำให้คนกลายร่างเป็นหมาป่าในคืนพระจันทร์เต็มดวง และได้ออกเข่นฆ่าชาวบ้าน ซึ่งทำให้ แอเบอร์ไลน์ (ฮิวโก้ วีฟวิง) นักสืบจากสก็อตแลนด์ยาร์ดได้มาที่นี่เพื่อสืบสวน ลอว์เรนซ์ได้วางแผนล่าสัตว์ร้ายนี้ เพื่อปกป้องหญิงสาวที่เขาเริ่มจะมีใจให้ เมื่อการไล่ล่าในคืนพระจันทร์เต็มดวงเกิดขึ้น ลอว์เรนซ์ก็ได้พบกับด้านมืดที่ซุกซ่อนอยู่ในตัวเอง โดยที่เขาไม่เคยคาดคิดมาก่อน!!

Complete name : [MINI Super-HQ]_The.Wolfman.2010.1080p.UNRATED.BrRip.x264.DTS.One2loadup.com.mkv
Format : Matroska
Format version : Version 4
File size : 3.90 GiB
Duration : 1 h 58 min
Overall bit rate : 4 696 kb/s
Movie name : [MINI Super-HQ]_The.Wolfman.2010.1080p.UNRATED.BrRip.x264.DTS.One2loadup.com
Encoded date : UTC 2010-02-22 21:41:31
Writing application : mkvmerge v5.9.0 (‘On The Loose’) built on Dec 9 2012 15:37:01
Writing library : libebml v1.3.0 + libmatroska v1.4.0

Video
ID : 1
Format : AVC
Format/Info : Advanced Video Codec
Format profile : [email protected]
Format settings : CABAC / 4 Ref Frames
Format settings, CABAC : Yes
Format settings, ReFrames : 4 frames
Codec ID : V_MPEG4/ISO/AVC
Duration : 1 h 58 min
Bit rate : 3 456 kb/s
Width : 1 920 pixels
Height : 1 040 pixels
Display aspect ratio : 1.85:1
Frame rate mode : Constant
Frame rate : 23.976 (23976/1000) FPS
Color space : YUV
Chroma subsampling : 4:2:0
Bit depth : 8 bits
Scan type : Progressive
Bits/(Pixel*Frame) : 0.072
Stream size : 2.83 GiB (72%)
Title : [MINI Super-HQ]_The.Wolfman.2010.1080p.UNRATED.BrRip.x264.DTS.One2loadup.com
Writing library : x264 core 130 r2273 b3065e6
Encoding settings : cabac=1 / ref=4 / deblock=1:0:0 / analyse=0x3:0x113 / me=umh / subme=10 / psy=1 / psy_rd=1.00:0.00 / mixed_ref=1 / me_range=24 / chroma_me=1 / trellis=2 / 8x8dct=1 / cqm=0 / deadzone=21,11 / fast_pskip=1 / chroma_qp_offset=-2 / threads=12 / lookahead_threads=1 / sliced_threads=0 / nr=0 / decimate=1 / interlaced=0 / bluray_compat=0 / constrained_intra=0 / bframes=4 / b_pyramid=2 / b_adapt=2 / b_bias=0 / direct=1 / weightb=1 / open_gop=0 / weightp=2 / keyint=240 / keyint_min=24 / scenecut=40 / intra_refresh=0 / rc_lookahead=40 / rc=2pass / mbtree=1 / bitrate=3456 / ratetol=1.0 / qcomp=0.60 / qpmin=0 / qpmax=69 / qpstep=4 / cplxblur=20.0 / qblur=0.5 / ip_ratio=1.40 / aq=1:1.00
Language : English
Default : Yes
Forced : No
Color range : Limited
Color primaries : BT.709
Transfer characteristics : BT.709
Matrix coefficients : BT.709

Audio #1
ID : 2
Format : AC-3
Format/Info : Audio Coding 3
Commercial name : Dolby Digital
Codec ID : A_AC3
Duration : 1 h 58 min
Bit rate mode : Constant
Bit rate : 448 kb/s
Channel(s) : 6 channels
Channel layout : L R C LFE Ls Rs
Sampling rate : 48.0 kHz
Frame rate : 31.250 FPS (1536 SPF)
Bit depth : 16 bits
Compression mode : Lossy
Stream size : 381 MiB (10%)
Title : Thai BluRay Master
Language : Thai
Service kind : Complete Main
Default : Yes
Forced : Yes

Audio #2
ID : 3
Format : DTS
Format/Info : Digital Theater Systems
Codec ID : A_DTS
Duration : 1 h 58 min
Bit rate mode : Constant
Bit rate : 755 kb/s
Channel(s) : 6 channels
Channel layout : C L R Ls Rs LFE
Sampling rate : 48.0 kHz
Frame rate : 93.750 FPS (512 SPF)
Bit depth : 24 bits
Compression mode : Lossy
Stream size : 642 MiB (16%)
Title : English DTS
Language : English
Default : No
Forced : No

Text #1
ID : 4
Format : VobSub
Codec ID : S_VOBSUB
Codec ID/Info : Picture based subtitle format used on DVDs
Title : Thai 480p
Language : Thai
Default : No
Forced : No

Text #2
ID : 5
Format : VobSub
Codec ID : S_VOBSUB
Codec ID/Info : Picture based subtitle format used on DVDs
Title : Thai 720p
Language : Thai
Default : No
Forced : No

Text #3
ID : 6
Format : VobSub
Codec ID : S_VOBSUB
Codec ID/Info : Picture based subtitle format used on DVDs
Title : Thai 1080p BluRay Master
Language : Thai
Default : Yes
Forced : Yes

Text #4
ID : 7
Format : VobSub
Codec ID : S_VOBSUB
Codec ID/Info : Picture based subtitle format used on DVDs
Title : Thai 1080p BIG
Language : Thai
Default : No
Forced : No

Text #5
ID : 8
Format : PGS
Codec ID : S_HDMV/PGS
Codec ID/Info : Picture based subtitle format used on BDs/HD-DVDs
Title : Thai PGS BluRay Master
Language : Thai
Default : No
Forced : No

Text #6
ID : 9
Format : VobSub
Codec ID : S_VOBSUB
Codec ID/Info : Picture based subtitle format used on DVDs
Title : English
Language : English
Default : No
Forced : No

Menu
00:00:00.000 : en:00:00:00.000
00:02:59.888 : en:00:02:59.888
00:13:34.188 : en:00:13:34.188
00:22:50.578 : en:00:22:50.578
00:27:39.283 : en:00:27:39.283
00:34:37.534 : en:00:34:37.534
00:40:50.490 : en:00:40:50.490
00:48:28.364 : en:00:48:28.364
00:52:23.557 : en:00:52:23.557
00:55:22.486 : en:00:55:22.486
01:00:49.187 : en:01:00:49.187
01:06:46.002 : en:01:06:46.002
01:09:41.010 : en:01:09:41.010
01:14:07.568 : en:01:14:07.568
01:22:06.463 : en:01:22:06.463
01:28:25.675 : en:01:28:25.675
01:34:25.910 : en:01:34:25.910
01:39:48.357 : en:01:39:48.357
01:44:55.956 : en:01:44:55.956
01:52:06.845 : en:01:52:06.845

 

DOWNLOAD


PART01 |||| PART02 |||| PART03 |||| PART04

PART01 |||| PART02 |||| PART03 |||| PART04

PART01 |||| PART02 |||| PART03 |||| PART04

PART01 |||| PART02 |||| PART03 |||| PART04


Leave A Reply

Your email address will not be published.

%d bloggers like this: