เว็บโหลดหนัง HD MINI-HD SUPER-HQ Full-HD 1080p One2up VIP Master Zoom ซูม หนังใหม่ ออนไลน์ มาสเตอร์ ไทย จีน ฝรั่ง การ์ตูน

[MINI Super-HQ] The Water Horse (2007) อภินิหารตำนานเจ้าสมุทร [1080p] [พากย์ไทย 5.1 + เสียงอังกฤษ 5.1] [บรรยายไทย + อังกฤษ] [เสียงไทย + ซับไทย] [ONE2UP]

10

โหลดหนัง  The Water Horse (2007) อภินิหารตำนานเจ้าสมุทร

เรื่องย่อ The Water Horse (2007) อภินิหารตำนานเจ้าสมุทร

เป็นเรื่องเล่าของเด็กชายชาวสก็อตผู้โดดเดี่ยวคนหนึ่ งชื่อแองกัส แม็คมอร์โรว์ ผู้ปรารถนาให้พ่อของเขากลับจากสงคราม เรื่องราวมหัศจรรย์นี้เริ่มต้นขึ้นเมื่อแองกัสนำวัตถุลึกลับแปลกประหลาดที่เขาพบที่ชายหาดกลับมาบ้าน ไม่ช้าเขาก็ได้รู้ว่า วัตถุลึกลับนั้นแท้จริงแล้วคือไข่ พิศวง เขาตัดสินใจนำมันกลับบ้าน โดยไม่รู้ว่าเขากำลังเผชิญหน้ากับ วอเตอร์ฮอสส์ สัตว์ลี้ลับในตำนานทะเลสาบสก๊อตแลนด์ การตัดสินใจครั้งนั้นนำพาเขาไปสู่เส้นทางการค้นพบสุด อัศจรรย์ และการผจญภัยที่เต็มไปด้นตรายรออยู่เบื้องหน้าเด็กน้อยต้องเสี่ยงชีวิตเพื่อรักษาความลี้ลับใต้ท้อง ทะเลสาบนี้ก่อนที่ วอเตอร์ฮอส จะกลายเป็นแค่ตำนานไปจริงๆ ระหว่างที่เขาพยายามซ่อนตัวเพื่อนของเขา ที่เขาตั้งชื่อว่าครูโซ สานสายสัมพันธ์แห่งมิตรภาพ แองกัสก็ได้เริ่มค้นพบบางสิ่งบางอย่างที่สำคัญ ด้วยการปกป้องความลับที่ก่อเกิดเป็นตำนานยิ่งใหญ่ ผลงานจากความร่วมมือครั้งยิ่งใหญ่ระหว่าง โซนี่ พิคเจอร์ส , เรฟโวลูชั่น สตูดิโอ, ผู้กำกับเจ้าของรางวัลอเคเดมี่ อวอดส์ (ออสการ์) และทีมผู้สร้างสเปเชี่ยล เอ๊ฟเฟ็คผู้อยู่เบื้องหลังความยิ่งใหญ่อลังการของมหา กาพยน์ภาพยนตร์ The Lord of the Rings และ The Chronicles of Narnia สู่การสร้างมหัศจรรย์ให้เกิดขึ้นอีกครั้งในภาพยนตร์ผ จญภัย แฟนตาซี สุดตระการตาใน The Water Horse: Legend of the Deep. อภินิหารตำนานเจ้าสมุทร นักแสดง เอมิลี่ วัตสัน อเล็กซ์ อีเท็ล เบน แชปพลิน เดวิด มอร์ริซซี่ ไบรอัน ค๊อกส์ กำกับการแสดง เจย์ รัสเซลล์

Complete name : [MINI Super-HQ]_The.Water.Horse.2007.1080p.x264.AC3.One2loadup.com.mkv
Format : Matroska
Format version : Version 2
File size : 4.51 GiB
Duration : 1 h 51 min
Overall bit rate : 5 776 kb/s
Encoded date : UTC
Writing application : HandBrake 0.10.2 2015060900
Writing library : Lavf55.12.0

Video
ID : 1
Format : AVC
Format/Info : Advanced Video Codec
Format profile : [email protected]
Format settings : CABAC / 4 Ref Frames
Format settings, CABAC : Yes
Format settings, ReFrames : 4 frames
Codec ID : V_MPEG4/ISO/AVC
Duration : 1 h 51 min
Bit rate : 4 500 kb/s
Width : 1 920 pixels
Height : 800 pixels
Display aspect ratio : 2.40:1
Frame rate mode : Constant
Frame rate : 23.976 (24000/1001) FPS
Color space : YUV
Chroma subsampling : 4:2:0
Bit depth : 8 bits
Scan type : Progressive
Bits/(Pixel*Frame) : 0.122
Stream size : 3.42 GiB (76%)
Writing library : x264 core 142 r2479 dd79a61
Encoding settings : cabac=1 / ref=1 / deblock=1:0:0 / analyse=0x1:0x111 / me=hex / subme=2 / psy=1 / psy_rd=1.00:0.00 / mixed_ref=0 / me_range=16 / chroma_me=1 / trellis=0 / 8x8dct=0 / cqm=0 / deadzone=21,11 / fast_pskip=1 / chroma_qp_offset=0 / threads=6 / lookahead_threads=2 / sliced_threads=0 / nr=0 / decimate=1 / interlaced=0 / bluray_compat=0 / constrained_intra=0 / bframes=3 / b_pyramid=2 / b_adapt=1 / b_bias=0 / direct=1 / weightb=1 / open_gop=0 / weightp=1 / keyint=240 / keyint_min=24 / scenecut=40 / intra_refresh=0 / rc_lookahead=10 / rc=abr / mbtree=1 / bitrate=4500 / ratetol=1.0 / qcomp=0.60 / qpmin=0 / qpmax=69 / qpstep=4 / vbv_maxrate=20000 / vbv_bufsize=25000 / nal_hrd=none / filler=0 / ip_ratio=1.40 / aq=1:1.00
Default : Yes
Forced : No
Color range : Limited
Color primaries : BT.709
Transfer characteristics : BT.709
Matrix coefficients : BT.709

Audio #1
ID : 2
Format : AC-3
Format/Info : Audio Coding 3
Codec ID : A_AC3
Duration : 1 h 51 min
Bit rate mode : Constant
Bit rate : 640 kb/s
Channel(s) : 6 channels
Channel positions : Front: L C R, Side: L R, LFE
Sampling rate : 48.0 kHz
Frame rate : 31.250 FPS (1536 SPF)
Bit depth : 16 bits
Compression mode : Lossy
Delay relative to video : -5 ms
Stream size : 512 MiB (11%)
Title : Surround
Language : Thai
Service kind : Complete Main
Default : Yes
Forced : No

Audio #2
ID : 3
Format : AC-3
Format/Info : Audio Coding 3
Codec ID : A_AC3
Duration : 1 h 51 min
Bit rate mode : Constant
Bit rate : 640 kb/s
Channel(s) : 6 channels
Channel positions : Front: L C R, Side: L R, LFE
Sampling rate : 48.0 kHz
Frame rate : 31.250 FPS (1536 SPF)
Bit depth : 16 bits
Compression mode : Lossy
Delay relative to video : -5 ms
Stream size : 512 MiB (11%)
Title : Surround
Language : English
Service kind : Complete Main
Default : No
Forced : No

Text #1
ID : 4
Format : PGS
Codec ID : S_HDMV/PGS
Codec ID/Info : Picture based subtitle format used on BDs/HD-DVDs
Language : English
Default : No
Forced : No

Text #2
ID : 5
Format : PGS
Codec ID : S_HDMV/PGS
Codec ID/Info : Picture based subtitle format used on BDs/HD-DVDs
Language : Thai
Default : No
Forced : No

DOWNLOAD


PART01 |||| PART02 |||| PART03 |||| PART04 |||| PART05

PART01 |||| PART02 |||| PART03 |||| PART04 |||| PART05

PART01 |||| PART02 |||| PART03 |||| PART04 |||| PART05

PART01 |||| PART02 |||| PART03 |||| PART04 |||| PART05


10 Comments
  1. Yogurt Angel
    Yogurt Angel says

    ขอบคุณค่ะ … โหลดครบ 4 พาทแล้วค่ะ แต่โปรแกรม winrar ถามหาพาทที่ 5

    1. Admin
      Admin says

      แก้ไขเรียบร้อยฮ๊ะ

  2. cherdsak says

    ไม่มีpart5

    1. Admin
      Admin says

      แก้ไขเรียบร้อยฮ๊ะ

  3. cherdsak says

    ไม่มีpart 5

  4. Scarlet Gene
    Scarlet Gene says

    ไม่มีpart5

  5. ภู says

    แอนตี้บอททำไมมันติงต๋องจัง

    1. Admin
      Admin says

      อะไรนะ

  6. ีืunclejiab says

    แตกไฟล์ไม่ได้ มันฟ้องว่า The archive is either in unknown format or damaged

    1. Admin
      Admin says

      แนะนำใช้ winrar version ล่าสุดฮ๊ะ

Leave A Reply

Your email address will not be published.

%d bloggers like this: