เว็บโหลดหนัง HD MINI-HD SUPER-HQ Full-HD 1080p One2up VIP Cornfile Mekafile Master Zoom ซูม หนังใหม่ ออนไลน์ มาสเตอร์ ไทย จีน ฝรั่ง การ์ตูน

[MINI Super-HQ] The SpongeBob Movie: Sponge Out of Water (2015) สพันจ์บ็อบ ฮีโร่จากใต้สมุทร [1080p] [พากย์ไทย 5.1 + อังกฤษ 5.1] [บรรยายไทย + อังกฤษ] [เสียงไทย + ซับไทย] [ONE2UP]

0

โหลดหนัง  The SpongeBob Movie: Sponge Out of Water (2015) สพันจ์บ็อบ ฮีโร่จากใต้สมุทร

เรื่องย่อ The SpongeBob Movie: Sponge Out of Water (2015) สพันจ์บ็อบ ฮีโร่จากใต้สมุทร

จากพาราเม้าต์ แอนิเมชั่น และนิคคาโลเดียน มูฟวี่ส์ ภูมิใจเสนอการผจญภัยใหม่เอี่ยมอ่องในภาพยนตร์เรื่อง “The SpongeBob Movie: Sponge Out of Water” ในรูปแบบ 3D ที่โลดโผนโจนทะยานและสนุกสนานเฮฮา นี่คือครั้งแรก! ที่ สพันจ์บ็อบ สแควร์แพนท์ส เจ้าฟองน้ำที่อาศัยอยู่ใต้มหาสมุทรขวัญใจมหาชนทั่วโลก จะก้าวขึ้นบกมาเยือนโลกของเรา
ในการผจญภัยครั้งที่อภิมหาหาญกล้าที่สุดที่เคยมีมา! ชีวิตในบิกินี่ บ็อทท่อมออกจะดี๊ดีสำหรับสพันจ์บ็อบ เจ้าฟองน้ำที่สุดแสนจะมองโลกในแง่ดี (ทอม เคนนี่)กับเหล่าผองเพื่อนของเขา ซึ่งประกอบไปด้วย แพทริค ปลาดาวผู้ซื่อสัตย์ (บิลล์ ฟาเกอร์แบ็กกี้), สควิดวอร์ด เจ้าปลาหมึกปากร้าย (ร็อดเจอร์ บัมพาสส์) แซนดี้ กระรอกสาวนักวิทยาศาสตร์ (แคโรลิน ลอว์เรนซ์) และมิสเตอร์แคร็บส์ นายทุนปูก้ามโต (แคลนซี่ บราวน์) … เมื่อสูตรลับสำหรับทำ แคร็บบี้ แพ็ตตี้ส์ เกิดถูกขโมยไป คู่อริตลอดกาลอย่างสพันจ์บ็อบ และแพลงตอน (มิสเตอร์ลอว์เรนซ์) ต้องผนึกกำลังกันเพื่อร่วมเดินทางฟันฝ่ากาลเวลาและสถ านที่ เพื่อควบคุมพลังวิเศษในตัวของพวกเขา และต่อสู้กับโจรสลัดที่ชั่วร้ายอย่าง เบอร์เกอร์ เบียร์ด (แอนโตนิโอ แบนเดอรัส) ผู้ที่มีแผนการอันร้ายกาจเกี่ยวกับอาหารรสเลิศของตน! !!!

Complete name : [MINI Super-HQ]_The.SpongeBob.Movie.Sponge.Out.of.Water.2015.1080p.BluRay.x264.One2loadup.com.mkv
Format : Matroska
Format version : Version 4 / Version 2
File size : 3.78 GiB
Duration : 1 h 32 min
Overall bit rate : 5 845 kb/s
Movie name : [MINI Super-HQ]_The.SpongeBob.Movie.Sponge.Out.of.Water.2015.1080p.BluRay.x264.One2loadup.com
Encoded date : UTC 2010-02-22 21:41:31
Writing application : mkvmerge v5.9.0 (‘On The Loose’) built on Dec 9 2012 15:37:01
Writing library : libebml v1.3.0 + libmatroska v1.4.0

Video
ID : 1
Format : AVC
Format/Info : Advanced Video Codec
Format profile : [email protected]
Format settings : CABAC / 7 Ref Frames
Format settings, CABAC : Yes
Format settings, ReFrames : 7 frames
Codec ID : V_MPEG4/ISO/AVC
Duration : 1 h 32 min
Bit rate : 4 500 kb/s
Width : 1 920 pixels
Height : 1 080 pixels
Display aspect ratio : 16:9
Frame rate mode : Constant
Frame rate : 23.976 (24000/1001) FPS
Color space : YUV
Chroma subsampling : 4:2:0
Bit depth : 8 bits
Scan type : Progressive
Bits/(Pixel*Frame) : 0.091
Stream size : 2.88 GiB (76%)
Writing library : x264 core 142 r2479 dd79a61
Encoding settings : cabac=1 / ref=7 / deblock=1:-1:-1 / analyse=0x3:0x133 / me=umh / subme=11 / psy=1 / psy_rd=1.00:0.15 / mixed_ref=1 / me_range=32 / chroma_me=1 / trellis=2 / 8x8dct=1 / cqm=0 / deadzone=21,11 / fast_pskip=1 / chroma_qp_offset=-3 / threads=6 / lookahead_threads=1 / sliced_threads=0 / nr=0 / decimate=1 / interlaced=0 / bluray_compat=0 / constrained_intra=0 / bframes=6 / b_pyramid=2 / b_adapt=2 / b_bias=0 / direct=3 / weightb=1 / open_gop=0 / weightp=2 / keyint=240 / keyint_min=24 / scenecut=40 / intra_refresh=0 / rc_lookahead=60 / rc=2pass / mbtree=1 / bitrate=4500 / ratetol=1.0 / qcomp=0.60 / qpmin=0 / qpmax=69 / qpstep=4 / cplxblur=20.0 / qblur=0.5 / ip_ratio=1.40 / aq=1:1.00
Language : English
Default : Yes
Forced : No
Color range : Limited
Color primaries : BT.709
Transfer characteristics : BT.709
Matrix coefficients : BT.709

Audio #1
ID : 2
Format : AC-3
Format/Info : Audio Coding 3
Codec ID : A_AC3
Duration : 1 h 32 min
Bit rate mode : Constant
Bit rate : 640 kb/s
Channel(s) : 6 channels
Channel positions : Front: L C R, Side: L R, LFE
Sampling rate : 48.0 kHz
Frame rate : 31.250 FPS (1536 SPF)
Bit depth : 16 bits
Compression mode : Lossy
Stream size : 424 MiB (11%)
Language : English
Service kind : Complete Main
Default : Yes
Forced : Yes

Audio #2
ID : 3
Format : AC-3
Format/Info : Audio Coding 3
Codec ID : A_AC3
Duration : 1 h 32 min
Bit rate mode : Constant
Bit rate : 640 kb/s
Channel(s) : 6 channels
Channel positions : Front: L C R, Side: L R, LFE
Sampling rate : 48.0 kHz
Frame rate : 31.250 FPS (1536 SPF)
Bit depth : 16 bits
Compression mode : Lossy
Stream size : 424 MiB (11%)
Language : Thai
Service kind : Complete Main
Default : No
Forced : No

Text #1
ID : 4
Format : VobSub
Codec ID : S_VOBSUB
Codec ID/Info : Picture based subtitle format used on DVDs
Language : Thai
Default : Yes
Forced : Yes

Text #2
ID : 5
Format : VobSub
Codec ID : S_VOBSUB
Codec ID/Info : Picture based subtitle format used on DVDs
Language : Thai
Default : No
Forced : No

Text #3
ID : 6
Format : PGS
Codec ID : S_HDMV/PGS
Codec ID/Info : Picture based subtitle format used on BDs/HD-DVDs
Language : Thai
Default : No
Forced : No

Text #4
ID : 7
Format : UTF-8
Codec ID : S_TEXT/UTF8
Codec ID/Info : UTF-8 Plain Text
Language : English
Default : No
Forced : No

DOWNLOAD


PART01 |||| PART02 |||| PART03 |||| PART04

PART01 |||| PART02 |||| PART03 |||| PART04

PART01 |||| PART02 |||| PART03 |||| PART04

PART01 |||| PART02 |||| PART03 |||| PART04


Leave A Reply

Your email address will not be published.

%d bloggers like this: