[MINI Super-HQ] The Scorpion King 3: Battle for Redemption (2012) สงครามแค้นกู้บัลลังก์เดือด ภาค 3 [1080p] [พากย์ไทย 5.1 + เสียงอังกฤษ DTS] [บรรยายไทย + อังกฤษ] [เสียงไทย + ซับไทย] [OPENLOAD]

0

The Scorpion King 3: Battle for Redemption (2012) สงครามแค้นกู้บัลลังก์เดือด ภาค 3

โหลดหนัง The Scorpion King 3: Battle for Redemption (2012) สงครามแค้นกู้บัลลังก์เดือด ภาค 3

เรื่องย่อ The Scorpion King 3: Battle for Redemption (2012) สงครามแค้นกู้บัลลังก์เดือด ภาค 3

นับจากการเรืองอำนาจถึงขีดสุด ครั้งนี้อาณาจักรของแมเธย์อุสได้ล่มสลายและสูญเสียราชินีของเขาให้กับโรคระบาด เวลานี้ในฐานะมือสังหารรับจ้าง เขาต้องปกป้องอาณาจักรแห่งนี้จากทรราชผู้ชั่วร้ายและกองทัพปีศาจของมัน เพื่อฉุดความรุ่งเรืองของเขากลับคืนมาอีกครั้ง!!!

Complete name : [MINI Super-HQ]_3.The.Scorpion.King.Battle.For.Redemption.2012.1080p.BrRip.x264.DTS.One2loadup.com.mkv
Format : Matroska
Format version : Version 4
File size : 8.62 GiB
Duration : 1 h 45 min
Overall bit rate mode : Variable
Overall bit rate : 11.7 Mb/s
Movie name : [MINI Super-HQ]_3.The.Scorpion.King.Battle.For.Redemption.2012.1080p.BrRip.x264.DTS.One2loadup.com
Encoded date : UTC 2016-07-09 09:34:29
Writing application : mkvmerge v8.2.0 (‘World of Adventure’) 64bit
Writing library : libebml v1.3.1 + libmatroska v1.4.2

Video
ID : 1
Format : AVC
Format/Info : Advanced Video Codec
Format profile : [email protected]
Format settings : CABAC / 3 Ref Frames
Format settings, CABAC : Yes
Format settings, ReFrames : 3 frames
Codec ID : V_MPEG4/ISO/AVC
Duration : 1 h 45 min
Bit rate mode : Variable
Bit rate : 9 253 kb/s
Maximum bit rate : 40.0 Mb/s
Width : 1 920 pixels
Height : 1 080 pixels
Display aspect ratio : 16:9
Frame rate mode : Constant
Frame rate : 23.976 (24000/1001) FPS
Color space : YUV
Chroma subsampling : 4:2:0
Bit depth : 8 bits
Scan type : Progressive
Bits/(Pixel*Frame) : 0.186
Stream size : 6.80 GiB (79%)
Title : [MINI Super-HQ]_3.The.Scorpion.King.Battle.For.Redemption.2012.1080p.BrRip.x264.DTS.One2loadup.com
Writing library : x264 core 124 r2197 69a0443
Encoding settings : cabac=1 / ref=3 / deblock=1:-1:-1 / analyse=0x3:0x133 / me=umh / subme=7 / psy=1 / psy_rd=1.00:0.15 / mixed_ref=0 / me_range=32 / chroma_me=1 / trellis=2 / 8x8dct=1 / cqm=0 / deadzone=21,11 / fast_pskip=0 / chroma_qp_offset=-3 / threads=12 / sliced_threads=0 / nr=0 / decimate=1 / interlaced=0 / bluray_compat=1 / constrained_intra=0 / bframes=3 / b_pyramid=0 / b_adapt=2 / b_bias=0 / direct=1 / weightb=1 / open_gop=1 / weightp=1 / keyint=230 / keyint_min=1 / scenecut=40 / intra_refresh=0 / rc_lookahead=40 / rc=2pass / mbtree=1 / bitrate=9253 / ratetol=1.0 / qcomp=0.60 / qpmin=10 / qpmax=51 / qpstep=4 / cplxblur=20.0 / qblur=0.5 / vbv_maxrate=40000 / vbv_bufsize=40000 / nal_hrd=vbr / ip_ratio=1.40 / aq=1:1.00
Language : English
Default : Yes
Forced : No
Color range : Limited
Matrix coefficients : BT.709

Audio #1
ID : 2
Format : AC-3
Format/Info : Audio Coding 3
Commercial name : Dolby Digital
Codec ID : A_AC3
Duration : 1 h 45 min
Bit rate mode : Constant
Bit rate : 448 kb/s
Channel(s) : 6 channels
Channel layout : L R C LFE Ls Rs
Sampling rate : 48.0 kHz
Frame rate : 31.250 FPS (1536 SPF)
Bit depth : 16 bits
Compression mode : Lossy
Stream size : 337 MiB (4%)
Title : Thai AC-3
Language : Thai
Service kind : Complete Main
Default : No
Forced : No

Audio #2
ID : 3
Format : DTS
Format/Info : Digital Theater Systems
Codec ID : A_DTS
Duration : 1 h 45 min
Bit rate mode : Constant
Bit rate : 1 509 kb/s
Channel(s) : 6 channels
Channel layout : C L R Ls Rs LFE
Sampling rate : 48.0 kHz
Frame rate : 93.750 FPS (512 SPF)
Bit depth : 24 bits
Compression mode : Lossy
Stream size : 1.11 GiB (13%)
Title : Eng DTS
Language : English
Default : No
Forced : No

Audio #3
ID : 4
Format : AC-3
Format/Info : Audio Coding 3
Commercial name : Dolby Digital
Codec ID : A_AC3
Duration : 1 h 45 min
Bit rate mode : Constant
Bit rate : 448 kb/s
Channel(s) : 6 channels
Channel layout : L R C LFE Ls Rs
Sampling rate : 48.0 kHz
Frame rate : 31.250 FPS (1536 SPF)
Bit depth : 16 bits
Compression mode : Lossy
Stream size : 337 MiB (4%)
Title : Eng AC-3
Language : English
Service kind : Complete Main
Default : No
Forced : No

Text #1
ID : 5
Format : VobSub
Muxing mode : zlib
Codec ID : S_VOBSUB
Codec ID/Info : Picture based subtitle format used on DVDs
Duration : 1 h 43 min
Bit rate : 3 088 b/s
Count of elements : 918
Stream size : 2.29 MiB (0%)
Title : Thai
Language : Thai
Default : No
Forced : No

Text #2
ID : 6
Format : VobSub
Muxing mode : zlib
Codec ID : S_VOBSUB
Codec ID/Info : Picture based subtitle format used on DVDs
Duration : 1 h 43 min
Bit rate : 3 088 b/s
Count of elements : 918
Stream size : 2.29 MiB (0%)
Title : Thai LOW
Language : Thai
Default : No
Forced : No

Text #3
ID : 7
Format : VobSub
Muxing mode : zlib
Codec ID : S_VOBSUB
Codec ID/Info : Picture based subtitle format used on DVDs
Duration : 1 h 43 min
Bit rate : 1 156 b/s
Count of elements : 918
Stream size : 880 KiB (0%)
Title : Thai
Language : Thai
Default : No
Forced : No

Text #4
ID : 8
Format : VobSub
Muxing mode : zlib
Codec ID : S_VOBSUB
Codec ID/Info : Picture based subtitle format used on DVDs
Duration : 1 h 40 min
Bit rate : 5 010 b/s
Count of elements : 1231
Stream size : 3.61 MiB (0%)
Title : Eng
Language : English
Default : No
Forced : No

Text #5
ID : 9
Format : UTF-8
Codec ID : S_TEXT/UTF8
Codec ID/Info : UTF-8 Plain Text
Duration : 1 h 40 min
Bit rate : 47 b/s
Count of elements : 1231
Stream size : 34.9 KiB (0%)
Title : Eng SRT
Language : English
Default : No
Forced : No

Text #6
ID : 10
Format : VobSub
Muxing mode : zlib
Codec ID : S_VOBSUB
Codec ID/Info : Picture based subtitle format used on DVDs
Duration : 1 h 43 min
Bit rate : 3 684 b/s
Count of elements : 918
Stream size : 2.74 MiB (0%)
Title : Italian
Language : Italian
Default : No
Forced : No

Text #7
ID : 11
Format : VobSub
Muxing mode : zlib
Codec ID : S_VOBSUB
Codec ID/Info : Picture based subtitle format used on DVDs
Duration : 1 h 43 min
Bit rate : 3 841 b/s
Count of elements : 926
Stream size : 2.85 MiB (0%)
Title : Spanish
Language : Spanish
Default : No
Forced : No

Text #8
ID : 12
Format : VobSub
Muxing mode : zlib
Codec ID : S_VOBSUB
Codec ID/Info : Picture based subtitle format used on DVDs
Duration : 1 h 43 min
Bit rate : 3 734 b/s
Count of elements : 926
Stream size : 2.77 MiB (0%)
Title : French
Language : French
Default : No
Forced : No

Text #9
ID : 13
Format : VobSub
Muxing mode : zlib
Codec ID : S_VOBSUB
Codec ID/Info : Picture based subtitle format used on DVDs
Duration : 1 h 43 min
Bit rate : 4 166 b/s
Count of elements : 926
Stream size : 3.09 MiB (0%)
Title : German
Language : German
Default : No
Forced : No

Text #10
ID : 14
Format : VobSub
Muxing mode : zlib
Codec ID : S_VOBSUB
Codec ID/Info : Picture based subtitle format used on DVDs
Duration : 1 h 43 min
Bit rate : 3 836 b/s
Count of elements : 926
Stream size : 2.85 MiB (0%)
Title : Danish
Language : Danish
Default : No
Forced : No

Text #11
ID : 15
Format : VobSub
Muxing mode : zlib
Codec ID : S_VOBSUB
Codec ID/Info : Picture based subtitle format used on DVDs
Duration : 1 h 43 min
Bit rate : 3 796 b/s
Count of elements : 917
Stream size : 2.82 MiB (0%)
Title : Dutch
Language : Dutch
Default : No
Forced : No

Text #12
ID : 16
Format : VobSub
Muxing mode : zlib
Codec ID : S_VOBSUB
Codec ID/Info : Picture based subtitle format used on DVDs
Duration : 1 h 43 min
Bit rate : 3 604 b/s
Count of elements : 918
Stream size : 2.68 MiB (0%)
Title : Norwegian
Language : Norwegian
Default : No
Forced : No

Text #13
ID : 17
Format : VobSub
Muxing mode : zlib
Codec ID : S_VOBSUB
Codec ID/Info : Picture based subtitle format used on DVDs
Duration : 1 h 43 min
Bit rate : 3 768 b/s
Count of elements : 919
Stream size : 2.80 MiB (0%)
Title : Portuguese
Language : Portuguese
Default : No
Forced : No

Text #14
ID : 18
Format : VobSub
Muxing mode : zlib
Codec ID : S_VOBSUB
Codec ID/Info : Picture based subtitle format used on DVDs
Duration : 1 h 43 min
Bit rate : 3 562 b/s
Count of elements : 918
Stream size : 2.65 MiB (0%)
Title : Swedish
Language : Swedish
Default : No
Forced : No

Text #15
ID : 19
Format : VobSub
Muxing mode : zlib
Codec ID : S_VOBSUB
Codec ID/Info : Picture based subtitle format used on DVDs
Duration : 1 h 43 min
Bit rate : 3 550 b/s
Count of elements : 918
Stream size : 2.64 MiB (0%)
Title : Finnish
Language : Finnish
Default : No
Forced : No

Text #16
ID : 20
Format : VobSub
Muxing mode : zlib
Codec ID : S_VOBSUB
Codec ID/Info : Picture based subtitle format used on DVDs
Duration : 1 h 43 min
Bit rate : 3 442 b/s
Count of elements : 918
Stream size : 2.56 MiB (0%)
Title : Hindi
Language : Hindi
Default : No
Forced : No

Text #17
ID : 21
Format : VobSub
Muxing mode : zlib
Codec ID : S_VOBSUB
Codec ID/Info : Picture based subtitle format used on DVDs
Duration : 1 h 43 min
Bit rate : 4 145 b/s
Count of elements : 926
Stream size : 3.08 MiB (0%)
Title : Japanese
Language : Japanese
Default : No
Forced : No

Text #18
ID : 22
Format : VobSub
Muxing mode : zlib
Codec ID : S_VOBSUB
Codec ID/Info : Picture based subtitle format used on DVDs
Duration : 1 h 43 min
Bit rate : 3 328 b/s
Count of elements : 918
Stream size : 2.47 MiB (0%)
Title : Chinese
Language : Chinese
Default : No
Forced : No

Text #19
ID : 23
Format : VobSub
Muxing mode : zlib
Codec ID : S_VOBSUB
Codec ID/Info : Picture based subtitle format used on DVDs
Duration : 1 h 43 min
Bit rate : 3 036 b/s
Count of elements : 927
Stream size : 2.26 MiB (0%)
Title : Korean
Language : Korean
Default : No
Forced : No

Menu
00:00:00.000 : :01
00:09:51.591 : :02
00:18:33.112 : :03
00:26:54.571 : :04
00:33:15.535 : :05
00:44:20.491 : :06
00:51:39.596 : :07
00:58:43.019 : :08
01:05:55.618 : :09
01:16:04.393 : :10
01:23:32.966 : :11
01:36:57.895 : :12

DOWNLOAD


PART01 |||| PART02 |||| PART03 |||| PART04 |||| PART05

PART01 |||| PART02 |||| PART03 |||| PART04 |||| PART05

PART01 |||| PART02 |||| PART03 |||| PART04 |||| PART05

PART01 |||| PART02 |||| PART03 |||| PART04 |||| PART05


Leave A Reply

Your email address will not be published.

%d bloggers like this: