โหลดหนัง HD MINI-HD SUPER-HQ Full-HD 1080p VIP Master Zoom ซูม หนังใหม่ ออนไลน์ มาสเตอร์ ไทย จีน ฝรั่ง การ์ตูน

[MINI Super-HQ] The Mist (2007) มฤตยูหมอกกินมนุษย์ [1080p] [พากย์ไทย 5.1 + อังกฤษ 5.1] [บรรยายไทย + อังกฤษ] [เสียงไทย + ซับไทย] [ONE2UP]

2

The Mist (2007) มฤตยูหมอกกินมนุษย์

โหลดหนัง The Mist (2007) มฤตยูหมอกกินมนุษย์

เรื่องย่อ The Mist (2007) มฤตยูหมอกกินมนุษย์

เรื่องราวของผู้คนในเมืองเล็กๆ ที่หนีตายไปอยู่ในซูเปอร์มาเก็ตแห่งหนึ่ง หลังจากที่เมืองทั้งเมืองถูกพายุหมอกมรณะครอบคลุม ในพายุหมอกนั้นมีอสุรกายแฝงตัวอยู่ และพร้อมที่จะกระชากวิญญาณของผู้ที่ผ่านเข้าไปในพายุ หมอกให้หายไปพร้อมกับสายลม ความตายทำให้ทุกคนหวาดผวา ธาตุแท้แห่งการเอาชีวิตรอด เหยื่อรายต่อไปจะเป็นใคร และอสุรกายเหล่านั้นมันมาจากไหน ความดุร้ายยิ่งกว่าสิ่งที่เห็นอยู่ภายนอกทั้งหมด มันกำลังคืบคลานเข้ามาสู่ซูเปอร์มาเก็ตสถานที่ๆ ทุกคนคิดว่าปลอดภัยที่สุด!!!

Complete name : [MINI Super-HQ]_The.Mist.2007.1080p.BDRip.x264.AC3.One2loadup.com.mkv
Format : Matroska
Format version : Version 4 / Version 2
File size : 4.18 GiB
Duration : 2 h 5 min
Overall bit rate : 4 753 kb/s
Movie name : [MINI Super-HQ]_The.Mist.2007.1080p.BDRip.x264.AC3.One2loadup.com
Encoded date : UTC 2015-10-10 06:47:53
Writing application : mkvmerge v8.3.0 (‘Over the Horizon’) 32bit
Writing library : libebml v1.3.1 + libmatroska v1.4.2

Video
ID : 1
Format : AVC
Format/Info : Advanced Video Codec
Format profile : [email protected]
Format settings : CABAC / 4 Ref Frames
Format settings, CABAC : Yes
Format settings, ReFrames : 4 frames
Codec ID : V_MPEG4/ISO/AVC
Duration : 2 h 5 min
Bit rate : 3 650 kb/s
Width : 1 920 pixels
Height : 1 040 pixels
Display aspect ratio : 1.85:1
Frame rate mode : Constant
Frame rate : 23.976 (24000/1001) FPS
Color space : YUV
Chroma subsampling : 4:2:0
Bit depth : 8 bits
Scan type : Progressive
Bits/(Pixel*Frame) : 0.076
Stream size : 3.14 GiB (75%)
Title : x264 @ 3650 Kbps
Writing library : x264 core 142 r2431+42 c69a006 tMod [[email protected] X86_64]
Encoding settings : cabac=1 / ref=4 / deblock=1:-3:-3 / analyse=0x3:0x133 / me=umh / subme=11 / psy=1 / fade_compensate=0.00 / psy_rd=1.00:0.15 / mixed_ref=1 / me_range=64 / chroma_me=1 / trellis=2 / 8x8dct=1 / cqm=0 / deadzone=21,11 / fast_pskip=0 / chroma_qp_offset=-3 / threads=12 / lookahead_threads=1 / sliced_threads=0 / nr=0 / decimate=1 / interlaced=0 / bluray_compat=0 / constrained_intra=0 / fgo=0 / bframes=4 / b_pyramid=2 / b_adapt=2 / b_bias=0 / direct=3 / weightb=1 / open_gop=0 / weightp=2 / keyint=240 / keyint_min=23 / scenecut=40 / intra_refresh=0 / rc_lookahead=120 / rc=2pass / mbtree=1 / bitrate=3650 / ratetol=1.0 / qcomp=0.60 / qpmin=0:0:0 / qpmax=37:37:37 / qpstep=4 / cplxblur=20.0 / qblur=0.5 / vbv_maxrate=50000 / vbv_bufsize=62500 / nal_hrd=none / filler=0 / ip_ratio=1.40 / aq=3:0.90 / aq-sensitivity=10.00 / aq-factor=1.00:1.00:1.00 / aq2=0 / aq3=0
Language : English
Default : Yes
Forced : No

Audio #1
ID : 2
Format : AC-3
Format/Info : Audio Coding 3
Codec ID : A_AC3
Duration : 2 h 5 min
Bit rate mode : Constant
Bit rate : 640 kb/s
Channel(s) : 6 channels
Channel positions : Front: L C R, Side: L R, LFE
Sampling rate : 48.0 kHz
Frame rate : 31.250 FPS (1536 SPF)
Bit depth : 16 bits
Compression mode : Lossy
Stream size : 577 MiB (13%)
Title : AC3 640 Kbps
Language : English
Service kind : Complete Main
Default : Yes
Forced : No

Audio #2
ID : 3
Format : AC-3
Format/Info : Audio Coding 3
Codec ID : A_AC3
Duration : 2 h 5 min
Bit rate mode : Constant
Bit rate : 448 kb/s
Channel(s) : 6 channels
Channel positions : Front: L C R, Side: L R, LFE
Sampling rate : 48.0 kHz
Frame rate : 31.250 FPS (1536 SPF)
Bit depth : 16 bits
Compression mode : Lossy
Stream size : 404 MiB (9%)
Title : AC3 448 Kbps
Language : Thai
Service kind : Complete Main
Default : No
Forced : No

Text #1
ID : 4
Format : VobSub
Muxing mode : zlib
Codec ID : S_VOBSUB
Codec ID/Info : Picture based subtitle format used on DVDs
Title : 1080p
Language : Thai
Default : Yes
Forced : No

Text #2
ID : 5
Format : PGS
Muxing mode : zlib
Codec ID : S_HDMV/PGS
Codec ID/Info : Picture based subtitle format used on BDs/HD-DVDs
Title : PGS
Language : Thai
Default : No
Forced : No

Text #3
ID : 6
Format : UTF-8
Codec ID : S_TEXT/UTF8
Codec ID/Info : UTF-8 Plain Text
Language : English
Default : No
Forced : No

Menu
00:00:00.000 : en:The Storm
00:06:02.653 : en:”Something in the Mist”
00:17:34.428 : en:Weird Noises in the Dark
00:22:14.583 : en:Norm’s Demise
00:28:42.220 : en:The Price of Disbelief
00:31:46.571 : en:”All We Saw Were Tentacles”
00:38:59.086 : en:The End of Days
00:41:40.956 : en:”No Defense Against the Will of God”
00:47:43.527 : en:”It’s Definitely Not Supernatural”
00:54:28.431 : en:”They Came Out of the Smoke; Locusts Upon the Earth”
01:05:58.579 : en:Faith in Humanity
01:17:13.211 : en:Trip to the Pharmacy
01:25:25.495 : en:Expiation
01:29:20.730 : en:The Arrowhead Project
01:35:28.723 : en:Escape From the Market
01:41:05.684 : en:Encounters in the Mist
01:44:07.491 : en:Hopelessness
01:57:23.786 : en:End Credits

DOWNLOAD


PART01 |||| PART02 |||| PART03 |||| PART04 |||| PART05

PART01 |||| PART02 |||| PART03 |||| PART04 |||| PART05

PART01 |||| PART02 |||| PART03 |||| PART04 |||| PART05

PART01 |||| PART02 |||| PART03 |||| PART04 |||| PART05


2 Comments
  1. Thadprom Promkhan
    Thadprom Promkhan says

    แก้ลิ้งพาท3หน่อยครับ

    1. Admin
      Admin says

      แก้ไขเรียบร้อยฮ๊ะ

Leave A Reply

Your email address will not be published.

%d bloggers like this: