[MINI Super-HQ] The Marine 4: Moving Target (2015) เดอะมารีน ล่านรก เป้าสังหาร ภาค 4 [1080p] [พากย์ไทย 5.1 + เสียงอังกฤษ DTS] [บรรยายไทย + อังกฤษ] [เสียงไทย + ซับไทย] [ONE2UP]

0

The Marine 4: Moving Target (2015)

โหลดหนัง The Marine 4: Moving Target (2015) เดอะมารีน ล่านรก เป้าสังหาร ภาค 4

The Marine 4: Moving Target (2015) 1h 30min | Action, Crime, Drama | Video 21 April 2015 Summary: Jake Carter is assigned to protect a "high-value package," a beautiful whistleblower trying to expose a corrupt army defense contractor.
Countries: USALanguages: English

เรื่องย่อ The Marine 4: Moving Target (2015) เดอะมารีน ล่านรก เป้าสังหาร ภาค 4

ไมค์ “เดอะ มิช” มิชานิน ยอดนักมวยปล้ำ WWE กลับมาในหนังแอ็คชั่นชุด The Marine ภาคใหม่คราวนี้เขาได้รับมอบหมายให้คุ้มครอง “สินค้ามีค่า” นั่นคือหญิงสาวคนหนึ่งที่พยายามแฉการฉ้อโกงในกองทัพ ให้รอดพ้นอันตรายจากทีมนักฆ่าติดอาวุธหนักที่ถูกว่าจ้างมาให้กำจัดเธอและทุกคนที่ขวางทาง!!!

Complete name : [MINI Super-HQ]_4.The.Marine.Moving.Target.2015.1080p.BrRip.DTS.x264.One2loadup.com.mkv
Format : Matroska
Format version : Version 4
File size : 3.77 GiB
Duration : 1 h 30 min
Overall bit rate : 5 980 kb/s
Movie name : [MINI Super-HQ]_4.The.Marine.4.Moving.Target.2015.1080p.BrRip.DTS.x264.One2loadup.com
Encoded date : UTC 2010-02-22 21:41:31
Writing application : mkvmerge v5.9.0 (‘On The Loose’) built on Dec 9 2012 15:37:01
Writing library : libebml v1.3.0 + libmatroska v1.4.0

Video
ID : 1
Format : AVC
Format/Info : Advanced Video Codec
Format profile : [email protected]
Format settings : CABAC / 4 Ref Frames
Format settings, CABAC : Yes
Format settings, ReFrames : 4 frames
Codec ID : V_MPEG4/ISO/AVC
Duration : 1 h 30 min
Bit rate : 4 777 kb/s
Width : 1 920 pixels
Height : 1 080 pixels
Display aspect ratio : 16:9
Frame rate mode : Constant
Frame rate : 23.976 (23976/1000) FPS
Color space : YUV
Chroma subsampling : 4:2:0
Bit depth : 8 bits
Scan type : Progressive
Bits/(Pixel*Frame) : 0.096
Stream size : 2.98 GiB (79%)
Title : [MINI Super-HQ]_4.The.Marine.4.Moving.Target.2015.1080p.BrRip.DTS.x264.One2loadup.com
Writing library : x264 core 130 r2273 b3065e6
Encoding settings : cabac=1 / ref=3 / deblock=1:0:0 / analyse=0x3:0x113 / me=umh / subme=11 / psy=1 / psy_rd=1.00:0.00 / mixed_ref=1 / me_range=32 / chroma_me=1 / trellis=2 / 8x8dct=1 / cqm=0 / deadzone=21,11 / fast_pskip=1 / chroma_qp_offset=-2 / threads=12 / lookahead_threads=1 / sliced_threads=0 / nr=0 / decimate=1 / interlaced=0 / bluray_compat=0 / constrained_intra=0 / bframes=3 / b_pyramid=2 / b_adapt=1 / b_bias=0 / direct=1 / weightb=1 / open_gop=0 / weightp=2 / keyint=240 / keyint_min=24 / scenecut=40 / intra_refresh=0 / rc_lookahead=40 / rc=2pass / mbtree=1 / bitrate=4777 / ratetol=1.0 / qcomp=0.60 / qpmin=0 / qpmax=69 / qpstep=4 / cplxblur=20.0 / qblur=0.5 / ip_ratio=1.40 / aq=1:1.00
Language : English
Default : Yes
Forced : No
Color range : Limited
Color primaries : BT.709
Transfer characteristics : BT.709
Matrix coefficients : BT.709

Audio #1
ID : 2
Format : AC-3
Format/Info : Audio Coding 3
Commercial name : Dolby Digital
Codec ID : A_AC3
Duration : 1 h 30 min
Bit rate mode : Constant
Bit rate : 384 kb/s
Channel(s) : 6 channels
Channel layout : L R C LFE Ls Rs
Sampling rate : 48.0 kHz
Frame rate : 31.250 FPS (1536 SPF)
Bit depth : 16 bits
Compression mode : Lossy
Stream size : 248 MiB (6%)
Title : Thai DVD Master
Language : Thai
Service kind : Complete Main
Default : Yes
Forced : Yes

Audio #2
ID : 3
Format : DTS
Format/Info : Digital Theater Systems
Codec ID : A_DTS
Duration : 1 h 30 min
Bit rate mode : Constant
Bit rate : 755 kb/s
Channel(s) : 6 channels
Channel layout : C L R Ls Rs LFE
Sampling rate : 48.0 kHz
Frame rate : 93.750 FPS (512 SPF)
Bit depth : 24 bits
Compression mode : Lossy
Stream size : 487 MiB (13%)
Title : English DTS
Language : English
Default : No
Forced : No

Text #1
ID : 4
Format : VobSub
Codec ID : S_VOBSUB
Codec ID/Info : Picture based subtitle format used on DVDs
Title : Thai 480p DVD Master
Language : Thai
Default : No
Forced : No

Text #2
ID : 5
Format : VobSub
Codec ID : S_VOBSUB
Codec ID/Info : Picture based subtitle format used on DVDs
Title : Thai 720p
Language : Thai
Default : No
Forced : No

Text #3
ID : 6
Format : VobSub
Codec ID : S_VOBSUB
Codec ID/Info : Picture based subtitle format used on DVDs
Title : Thai 1080p
Language : Thai
Default : Yes
Forced : Yes

Text #4
ID : 7
Format : VobSub
Codec ID : S_VOBSUB
Codec ID/Info : Picture based subtitle format used on DVDs
Title : Thai 1080p Yellow
Language : Thai
Default : No
Forced : No

Text #5
ID : 8
Format : VobSub
Codec ID : S_VOBSUB
Codec ID/Info : Picture based subtitle format used on DVDs
Title : Thai 1080p BIG
Language : Thai
Default : No
Forced : No

Text #6
ID : 9
Format : PGS
Codec ID : S_HDMV/PGS
Codec ID/Info : Picture based subtitle format used on BDs/HD-DVDs
Title : Thai PGS
Language : Thai
Default : No
Forced : No

Text #7
ID : 10
Format : PGS
Codec ID : S_HDMV/PGS
Codec ID/Info : Picture based subtitle format used on BDs/HD-DVDs
Title : Thai PGS Yellow
Language : Thai
Default : No
Forced : No

Text #8
ID : 11
Format : UTF-8
Codec ID : S_TEXT/UTF8
Codec ID/Info : UTF-8 Plain Text
Title : English
Language : English
Default : No
Forced : No

Menu
00:00:00.000 : en:Chapter 1
00:03:47.268 : en:Chapter 2
00:04:58.172 : en:Chapter 3
00:06:52.662 : en:Chapter 4
00:08:44.273 : en:Chapter 5
00:11:18.886 : en:Chapter 6
00:13:23.260 : en:Chapter 7
00:17:29.089 : en:Chapter 8
00:21:05.764 : en:Chapter 9
00:24:33.430 : en:Chapter 10
00:28:10.980 : en:Chapter 11
00:33:49.277 : en:Chapter 12
00:36:52.376 : en:Chapter 13
00:39:56.477 : en:Chapter 14
00:42:34.635 : en:Chapter 15
00:47:35.936 : en:Chapter 16
00:49:38.016 : en:Chapter 17
00:55:11.307 : en:Chapter 18
01:00:06.436 : en:Chapter 19
01:04:37.456 : en:Chapter 20
01:07:33.632 : en:Chapter 21
01:11:34.748 : en:Chapter 22
01:14:19.621 : en:Chapter 23
01:15:35.072 : en:Chapter 24
01:17:04.911 : en:Chapter 25
01:18:40.924 : en:Chapter 26
01:20:43.380 : en:Chapter 27
01:24:12.046 : en:Chapter 28

DOWNLOAD


PART01 |||| PART02 |||| PART03 |||| PART04

PART01 |||| PART02 |||| PART03 |||| PART04

PART01 |||| PART02 |||| PART03 |||| PART04

PART01 |||| PART02 |||| PART03 |||| PART04


Leave A Reply

Your email address will not be published.

%d bloggers like this: