[MINI Super-HQ] The Losers (2010) โคตรทีม อ.ต.ร. แพ้ไม่เป็น [1080p] [พากย์ไทย 5.1 + เสียงอังกฤษ DTS] [บรรยายไทย + อังกฤษ] [เสียงไทย + ซับไทย] [OPENLOAD]

0

โหลดหนัง  The Losers (2010) โคตรทีม อ.ต.ร. แพ้ไม่เป็น

เรื่องย่อ CHIPs (2017) ชิปส์

สุดยอดภาพยนตร์แอ็คชั่นที่เล่าเรื่องราวการหักหลังและทวงแค้นโดยมีศูนย์กลางของเรื่องคือเหล่าสมาชิกหน่วยปฏิบัติการพิเศษฝีมือระดับหัวกะทิที่ถูกส่งไปโบลิเวียเพื่อตามล่าและกำจัดนายหน้าค้าอาวุธรายหนึ่ง แต่ทีมที่ประกอบไปด้วย เคลย์ เจนเซ่น โร้ค พูช และ คูการ์ ก็พบความจริงในไม่ช้าว่าพวกเขาต้องกลายเป็นเหยื่อของแผนซ้อนแผนสุดอันตรายโดยมีฝีมือของศัตรูอำนาจล้นหลามที่รู้จักแต่เพียงในนาม แม็กซ์ ในเมื่อทุกคนคิดว่าโคตรทีมอ.ต.ร. นี้ ล้วนถูกเด็ดหัวไปจนหมดแล้ว พวกเขาจึงใช้ประโยชน์ข้อนี้ลงมือสืบสวนกันอย่างลับๆ เพื่อกู้ชื่อตัวเองกลับมาและเอาคืนกับแม็กซ์ให้สาสม พวกเขาได้ไอชา เจ้าหน้าที่สาวสวยผู้ลึกลับที่มีเป้าหมายส่วนตัวเข้ามาร่วมทีม ซึ่งหากพวกเขาสามารถสอยแม็กซ์ให้จมดิน และช่วยโลกให้พ้นภัยได้พร้อมๆ กัน มันจะกลายเป็นสุดยอดชัยชนะ ปะหัวทีมที่เวลานี้ใครๆ ก็รู้จักกันในนาม เดอะลูซเซอร์ส โคตรทีมอ.ต.ร. แพ้ไม่เป็น

Complete name : [MINI Super-HQ]_The.Losers.2010.1080p.BrRip.DTS.x264.One2loadup.com.mkv
Format : Matroska
Format version : Version 4
File size : 4.23 GiB
Duration : 1 h 37 min
Overall bit rate : 6 237 kb/s
Movie name : [MINI Super-HQ]_The.Losers.2010.1080p.BrRip.DTS.x264.One2loadup.com
Encoded date : UTC 2019-01-14 14:35:21
Writing application : mkvmerge v30.1.0 (‘Forever And More’) 64-bit
Writing library : libebml v1.3.6 + libmatroska v1.4.9

Video
ID : 1
Format : AVC
Format/Info : Advanced Video Codec
Format profile : [email protected]
Format settings : CABAC / 4 Ref Frames
Format settings, CABAC : Yes
Format settings, ReFrames : 4 frames
Codec ID : V_MPEG4/ISO/AVC
Duration : 1 h 37 min
Bit rate : 5 038 kb/s
Width : 1 920 pixels
Height : 800 pixels
Display aspect ratio : 2.40:1
Frame rate mode : Constant
Frame rate : 23.976 FPS
Color space : YUV
Chroma subsampling : 4:2:0
Bit depth : 8 bits
Scan type : Progressive
Bits/(Pixel*Frame) : 0.137
Stream size : 3.41 GiB (81%)
Title : [MINI Super-HQ]_The.Losers.2010.1080p.BrRip.DTS.x264.One2loadup.com
Writing library : x264 core 146 r2538 121396c
Encoding settings : cabac=1 / ref=4 / deblock=1:-3:-3 / analyse=0x3:0x113 / me=umh / subme=11 / psy=1 / psy_rd=1.00:0.00 / mixed_ref=1 / me_range=64 / chroma_me=1 / trellis=2 / 8x8dct=1 / cqm=0 / deadzone=21,11 / fast_pskip=0 / chroma_qp_offset=-2 / threads=24 / lookahead_threads=2 / sliced_threads=0 / nr=0 / decimate=1 / interlaced=0 / bluray_compat=0 / constrained_intra=0 / bframes=4 / b_pyramid=2 / b_adapt=2 / b_bias=0 / direct=3 / weightb=1 / open_gop=0 / weightp=2 / keyint=250 / keyint_min=23 / scenecut=40 / intra_refresh=0 / rc_lookahead=120 / rc=2pass / mbtree=1 / bitrate=5038 / ratetol=1.0 / qcomp=0.60 / qpmin=0 / qpmax=69 / qpstep=4 / cplxblur=20.0 / qblur=0.5 / vbv_maxrate=50000 / vbv_bufsize=62500 / nal_hrd=none / filler=0 / ip_ratio=1.40 / aq=1:1.00
Language : English
Default : Yes
Forced : No

Audio #1
ID : 2
Format : AC-3
Format/Info : Audio Coding 3
Commercial name : Dolby Digital
Codec ID : A_AC3
Duration : 1 h 36 min
Bit rate mode : Constant
Bit rate : 384 kb/s
Channel(s) : 6 channels
Channel layout : L R C LFE Ls Rs
Sampling rate : 48.0 kHz
Frame rate : 31.250 FPS (1536 SPF)
Bit depth : 16 bits
Compression mode : Lossy
Stream size : 266 MiB (6%)
Title : Thai 5.1 MASTER
Language : Thai
Service kind : Complete Main
Default : Yes
Forced : Yes

Audio #2
ID : 3
Format : DTS
Format/Info : Digital Theater Systems
Codec ID : A_DTS
Duration : 1 h 36 min
Bit rate mode : Constant
Bit rate : 755 kb/s
Channel(s) : 6 channels
Channel layout : C L R Ls Rs LFE
Sampling rate : 48.0 kHz
Frame rate : 93.750 FPS (512 SPF)
Bit depth : 24 bits
Compression mode : Lossy
Stream size : 523 MiB (12%)
Title : English DTS
Language : English
Default : No
Forced : No

Text #1
ID : 4
Format : VobSub
Muxing mode : zlib
Codec ID : S_VOBSUB
Codec ID/Info : Picture based subtitle format used on DVDs
Duration : 1 h 36 min
Bit rate : 6 848 b/s
Count of elements : 1108
Stream size : 4.72 MiB (0%)
Title : 1080P TSA
Language : Thai
Default : No
Forced : No

Text #2
ID : 5
Format : VobSub
Muxing mode : zlib
Codec ID : S_VOBSUB
Codec ID/Info : Picture based subtitle format used on DVDs
Duration : 1 h 36 min
Bit rate : 6 834 b/s
Count of elements : 1108
Stream size : 4.71 MiB (0%)
Title : 1080P TSA YELLOW
Language : Thai
Default : No
Forced : No

Text #3
ID : 6
Format : VobSub
Muxing mode : zlib
Codec ID : S_VOBSUB
Codec ID/Info : Picture based subtitle format used on DVDs
Duration : 1 h 36 min
Bit rate : 6 848 b/s
Count of elements : 1108
Stream size : 4.72 MiB (0%)
Title : 1080P TSA UNDER
Language : Thai
Default : No
Forced : No

Text #4
ID : 7
Format : VobSub
Muxing mode : zlib
Codec ID : S_VOBSUB
Codec ID/Info : Picture based subtitle format used on DVDs
Duration : 1 h 36 min
Bit rate : 7 454 b/s
Count of elements : 1108
Stream size : 5.14 MiB (0%)
Title : 1080P AS
Language : Thai
Default : No
Forced : No

Text #5
ID : 8
Format : VobSub
Muxing mode : zlib
Codec ID : S_VOBSUB
Codec ID/Info : Picture based subtitle format used on DVDs
Duration : 1 h 36 min
Bit rate : 2 338 b/s
Count of elements : 1108
Stream size : 1.62 MiB (0%)
Title : DVD MASTER
Language : Thai
Default : No
Forced : No

Text #6
ID : 9
Format : UTF-8
Codec ID : S_TEXT/UTF8
Codec ID/Info : UTF-8 Plain Text
Duration : 1 h 36 min
Bit rate : 109 b/s
Count of elements : 1108
Stream size : 77.2 KiB (0%)
Title : SRT OCR
Language : Thai
Default : No
Forced : No

Text #7
ID : 10
Format : UTF-8
Codec ID : S_TEXT/UTF8
Codec ID/Info : UTF-8 Plain Text
Duration : 1 h 31 min
Bit rate : 53 b/s
Count of elements : 1102
Stream size : 36.1 KiB (0%)
Title : SRT
Language : English
Default : No
Forced : No

Text #8
ID : 11
Format : PGS
Muxing mode : zlib
Codec ID : S_HDMV/PGS
Codec ID/Info : Picture based subtitle format used on BDs/HD-DVDs
Duration : 1 h 36 min
Bit rate : 29.3 kb/s
Count of elements : 2216
Stream size : 20.2 MiB (0%)
Title : TSA
Language : Thai
Default : Yes
Forced : Yes

Text #9
ID : 12
Format : PGS
Muxing mode : zlib
Codec ID : S_HDMV/PGS
Codec ID/Info : Picture based subtitle format used on BDs/HD-DVDs
Duration : 1 h 36 min
Bit rate : 29.3 kb/s
Count of elements : 2216
Stream size : 20.2 MiB (0%)
Title : TSA UNDER
Language : Thai
Default : No
Forced : No

Text #10
ID : 13
Format : PGS
Muxing mode : zlib
Codec ID : S_HDMV/PGS
Codec ID/Info : Picture based subtitle format used on BDs/HD-DVDs
Duration : 1 h 36 min
Bit rate : 31.2 kb/s
Count of elements : 2216
Stream size : 21.5 MiB (0%)
Title : AS
Language : Thai
Default : No
Forced : No

DOWNLOAD


PART01 |||| PART02 |||| PART03 |||| PART04 |||| PART05

PART01 |||| PART02 |||| PART03 |||| PART04 |||| PART05

PART01 |||| PART02 |||| PART03 |||| PART04 |||| PART05

PART01 |||| PART02 |||| PART03 |||| PART04 |||| PART05


Leave A Reply

Your email address will not be published.

%d bloggers like this: