[MINI Super-HQ] The Lego Movie 2: The Second Part (2019) เดอะ เลโก้ มูฟวี่ 2 [1080p] [พากย์ไทย 5.1 + เสียงอังกฤษ DTS] [บรรยายไทย + อังกฤษ] [เสียงไทย + ซับไทย] [OPENLOAD]

0

โหลดหนัง  The Lego Movie 2: The Second Part (2019) เดอะ เลโก้ มูฟวี่ 2

De Lego Film 2 (2019) 1h 47min | Animation, Action, Adventure | 6 February 2019 (Netherlands) Summary: It's been five years since everything was awesome and the citizens are facing a huge new threat: Lego Duplo invaders from outer space, wrecking everything faster than they can rebuild.
Countries: Denmark, Norway, Australia, USALanguages: English

เรื่องย่อ The Lego Movie 2: The Second Part (2019) เดอะ เลโก้ มูฟวี่ 2

ภาพยนตร์ที่ได้นักวิจารณ์ต่างชื่นชม ได้รับความนิยมจากบ็อกซ์ออฟฟิศทั่วโลก “The LEGO Movie 2” กลับมาอีกครั้งกับการรวมตัวของเหล่าฮีโร่แห่งบริคสเบิร์ก ที่มาพร้อมการผจญภัยครั้งใหม่เพื่อช่วยเหลือเมืองอัน เป็นที่รักนี้ หลังผ่านช่วงเวลาอันแสนสงบสุขมาห้าปีในที่สุดประชาชนชาวบริคเบิร์กก็ต้องพบกับการรุกรานครั่งใหม่อันใหญ่โตมโหฬาร จากฝีมือของ LEGO DUPLO ผู้รุกรานจากห้วงอวกาศพวกมันทำลายทุกสิ่งได้เร็วเสียยิ่งกว่าการสร้างสรรค์ การต่อสู้เพื่อเอาชนะพวกมันและนำสันติสุขคืนสู่จักรวาลเลโก้จะนำพาให้ เอ็มเม็ต, ลูซี่, แบทแมนและผองเพื่อนได้ไปสู่สถานที่ที่ไกลแสนไกลในโลกที่ไม่ เคยมีใครไปถึง ซึ่งนั่นรวมไปถึงห้วงจักรวาลอันแปลกประหลาดที่ทุกสิ่ งเป็นดั่งละครเวที
สถานที่เหล่านี้จะทดสอบความกล้าหาญ ความสร้างสรรค์ นำมาซึ่งการพัฒนาฝีมือการสร้างให้ถึงขีดสุด และจะแสดงให้เห็นว่าพวกเขาทุกคนต่างก็เป็นคนพิเศษขนาดไหน เหล่านักแสดงผู้ให้เสียงตัวละครอันคุ้นหน้าคุ้นตาจาก ภาคแรกกลับมาอีกครั้ง!!! ไม่ว่าจะเป็น คริส แพร็ตต์ ให้เสียง เอ็มเม็ต, อลิซาเบธ แบงส์ ให้เสียง ลูซี่(หรือที่รู้จักกันในชื่อ ไวล์ดสไตล์), วิลล์ อาร์เน็ตต์ให้เสียง เลโก้แบทแมน, นิก ออฟเฟอร์แมน ให้เสียงเคราเหล็ก, อลิสัน บรี ให้เสียง ยูนิคิตตี้ และ ชาร์ลี เดย์ ให้เสียงเบนนี่ร่วมด้วย ทิฟฟานี่ แฮดดิช, สเตฟานี่ เบียทริซ และ อาทูโร คาสโตรซึ่งจะมาให้เสียงตัวละครใหม่อย่า ราชินีวาทีฟรา วานาบี, สวีทเมย์แฮม และไอศกรีมโคน

Complete name : [MINI Super-HQ]_The.Lego.Movie.2.The.Second.Part.2019.1080p.BrRip.DTS.x264.One2loadup.com.mkv
Format : Matroska
Format version : Version 4
File size : 4.04 GiB
Duration : 1 h 47 min
Overall bit rate : 5 394 kb/s
Movie name : [MINI Super-HQ]_The.Lego.Movie.2.The.Second.Part.2019.1080p.BrRip.DTS.x264.One2loadup.com
Encoded date : UTC 2010-02-22 21:41:31
Writing application : mkvmerge v5.9.0 (‘On The Loose’) built on Dec 9 2012 15:37:01
Writing library : libebml v1.3.0 + libmatroska v1.4.0

Video
ID : 1
Format : AVC
Format/Info : Advanced Video Codec
Format profile : [email protected]
Format settings : CABAC / 4 Ref Frames
Format settings, CABAC : Yes
Format settings, ReFrames : 4 frames
Codec ID : V_MPEG4/ISO/AVC
Duration : 1 h 47 min
Bit rate : 3 909 kb/s
Width : 1 920 pixels
Height : 804 pixels
Display aspect ratio : 2.40:1
Frame rate mode : Constant
Frame rate : 23.976 (24000/1001) FPS
Color space : YUV
Chroma subsampling : 4:2:0
Bit depth : 8 bits
Scan type : Progressive
Bits/(Pixel*Frame) : 0.106
Stream size : 3.06 GiB (76%)
Title : [MINI Super-HQ]_The.Lego.Movie.2.The.Second.Part.2019.1080p.BrRip.DTS.x264.One2loadup.com
Writing library : x264 core 130 r2273 b3065e6
Encoding settings : cabac=1 / ref=3 / deblock=1:0:0 / analyse=0x3:0x113 / me=umh / subme=11 / psy=1 / psy_rd=1.00:0.00 / mixed_ref=1 / me_range=48 / chroma_me=1 / trellis=2 / 8x8dct=1 / cqm=0 / deadzone=21,11 / fast_pskip=1 / chroma_qp_offset=-2 / threads=10 / lookahead_threads=1 / sliced_threads=0 / nr=0 / decimate=1 / interlaced=0 / bluray_compat=0 / constrained_intra=0 / bframes=3 / b_pyramid=2 / b_adapt=1 / b_bias=0 / direct=1 / weightb=1 / open_gop=0 / weightp=2 / keyint=240 / keyint_min=24 / scenecut=40 / intra_refresh=0 / rc_lookahead=40 / rc=2pass / mbtree=1 / bitrate=3909 / ratetol=1.0 / qcomp=0.60 / qpmin=0 / qpmax=69 / qpstep=4 / cplxblur=20.0 / qblur=0.5 / ip_ratio=1.40 / aq=1:1.00
Language : English
Default : Yes
Forced : No
Color range : Limited
Color primaries : BT.709
Transfer characteristics : BT.709
Matrix coefficients : BT.709

Audio #1
ID : 2
Format : AC-3
Format/Info : Audio Coding 3
Commercial name : Dolby Digital
Codec ID : A_AC3
Duration : 1 h 47 min
Bit rate mode : Constant
Bit rate : 448 kb/s
Channel(s) : 6 channels
Channel layout : L R C LFE Ls Rs
Sampling rate : 48.0 kHz
Frame rate : 31.250 FPS (1536 SPF)
Bit depth : 16 bits
Compression mode : Lossy
Stream size : 343 MiB (8%)
Title : Thai BluRay Master
Language : Thai
Service kind : Complete Main
Default : Yes
Forced : Yes

Audio #2
ID : 3
Format : DTS
Format/Info : Digital Theater Systems
Codec ID : A_DTS
Duration : 1 h 47 min
Bit rate mode : Constant
Bit rate : 755 kb/s
Channel(s) : 6 channels
Channel layout : C L R Ls Rs LFE
Sampling rate : 48.0 kHz
Frame rate : 93.750 FPS (512 SPF)
Bit depth : 24 bits
Compression mode : Lossy
Stream size : 578 MiB (14%)
Title : English DTS
Language : English
Default : No
Forced : No

Text #1
ID : 4
Format : VobSub
Codec ID : S_VOBSUB
Codec ID/Info : Picture based subtitle format used on DVDs
Title : Thai 480p
Language : Thai
Default : No
Forced : No

Text #2
ID : 5
Format : VobSub
Codec ID : S_VOBSUB
Codec ID/Info : Picture based subtitle format used on DVDs
Title : Thai 720p
Language : Thai
Default : No
Forced : No

Text #3
ID : 6
Format : VobSub
Codec ID : S_VOBSUB
Codec ID/Info : Picture based subtitle format used on DVDs
Title : Thai 1080p
Language : Thai
Default : Yes
Forced : Yes

Text #4
ID : 7
Format : VobSub
Codec ID : S_VOBSUB
Codec ID/Info : Picture based subtitle format used on DVDs
Title : Thai 1080p Yellow
Language : Thai
Default : No
Forced : No

Text #5
ID : 8
Format : VobSub
Codec ID : S_VOBSUB
Codec ID/Info : Picture based subtitle format used on DVDs
Title : Thai 1080p Out
Language : Thai
Default : No
Forced : No

Text #6
ID : 9
Format : VobSub
Codec ID : S_VOBSUB
Codec ID/Info : Picture based subtitle format used on DVDs
Title : Thai 1080p BIG
Language : Thai
Default : No
Forced : No

Text #7
ID : 10
Format : VobSub
Codec ID : S_VOBSUB
Codec ID/Info : Picture based subtitle format used on DVDs
Title : Thai 1080p Out [BIG]
Language : Thai
Default : No
Forced : No

Text #8
ID : 11
Format : PGS
Codec ID : S_HDMV/PGS
Codec ID/Info : Picture based subtitle format used on BDs/HD-DVDs
Title : Thai PGS BluRay Master
Language : Thai
Default : No
Forced : No

Text #9
ID : 12
Format : PGS
Codec ID : S_HDMV/PGS
Codec ID/Info : Picture based subtitle format used on BDs/HD-DVDs
Title : Thai PGS Yellow
Language : Thai
Default : No
Forced : No

Text #10
ID : 13
Format : PGS
Codec ID : S_HDMV/PGS
Codec ID/Info : Picture based subtitle format used on BDs/HD-DVDs
Title : Thai PGS Out
Language : Thai
Default : No
Forced : No

Text #11
ID : 14
Format : PGS
Codec ID : S_HDMV/PGS
Codec ID/Info : Picture based subtitle format used on BDs/HD-DVDs
Title : English
Language : English
Default : No
Forced : No

 

DOWNLOAD


PART01 |||| PART02 |||| PART03 |||| PART04 |||| PART05

PART01 |||| PART02 |||| PART03 |||| PART04 |||| PART05

PART01 |||| PART02 |||| PART03 |||| PART04 |||| PART05

PART01 |||| PART02 |||| PART03 |||| PART04 |||| PART05


Leave A Reply

Your email address will not be published.

%d bloggers like this: