[MINI Super-HQ] The Late Bloomer (2016) กว่าจะสำเร็จ [1080p] [พากย์ไทย 5.1 + เสียงอังกฤษ 5.1] [บรรยายไทย + อังกฤษ] [เสียงไทย + ซับไทย] [OPENLOAD]

0

The Late Bloomer (2016) กว่าจะสำเร็จ

โหลดหนัง The Late Bloomer (2016) กว่าจะสำเร็จ

The Late Bloomer (2016) 1h 30min | Comedy, Drama, Romance | 7 October 2016 (USA) Summary: The story of an adult male who, after the successful removal of a benign tumor resting against his pituitary gland, experiences all the changes and effects of puberty over a three-week period.
Countries: USALanguages: English

เรื่องย่อ The Late Bloomer (2016) กว่าจะสำเร็จ

เรื่องราวของชายที่เป็นผู้ใหญ่หลังจากประสบความสำเร็จในการกำจัดเนื้องอกที่ไม่เป็นพิษเป็นภัยต่อมใต้สมอง ของเขาประสบการณ์การเปลี่ยนแปลงทั้งหมดและผลกระทบของวัยแรกรุ่นในช่วงสามสัปดาห์

Complete name : [MINI Super-HQ]_The.Late.Bloomer.2016.1080p.Web-DL.AC3.x264.One2loadup.com.mkv
Format : Matroska
Format version : Version 4
File size : 4.16 GiB
Duration : 1 h 34 min
Overall bit rate : 6 285 kb/s
Movie name : [MINI Super-HQ]_The.Late.Bloomer.2016.1080p.Web-DL.AC3.x264.One2loadup.com
Encoded date : UTC 2010-02-22 21:41:31
Writing application : mkvmerge v5.9.0 (‘On The Loose’) built on Dec 9 2012 15:37:01
Writing library : libebml v1.3.0 + libmatroska v1.4.0

Video
ID : 1
Format : AVC
Format/Info : Advanced Video Codec
Format profile : [email protected]
Format settings : CABAC / 4 Ref Frames
Format settings, CABAC : Yes
Format settings, ReFrames : 4 frames
Codec ID : V_MPEG4/ISO/AVC
Duration : 1 h 34 min
Bit rate : 5 264 kb/s
Width : 1 920 pixels
Height : 1 032 pixels
Display aspect ratio : 1.85:1
Frame rate mode : Constant
Frame rate : 23.976 FPS
Color space : YUV
Chroma subsampling : 4:2:0
Bit depth : 8 bits
Scan type : Progressive
Bits/(Pixel*Frame) : 0.111
Stream size : 3.48 GiB (84%)
Title : [MINI Super-HQ]_The.Late.Bloomer.2016.1080p.Web-DL.AC3.x264.One2loadup.com
Language : English
Default : Yes
Forced : No
Color range : Limited
Color primaries : BT.709
Transfer characteristics : BT.709
Matrix coefficients : BT.709

Audio #1
ID : 2
Format : AC-3
Format/Info : Audio Coding 3
Commercial name : Dolby Digital
Codec ID : A_AC3
Duration : 1 h 34 min
Bit rate mode : Constant
Bit rate : 448 kb/s
Channel(s) : 6 channels
Channel layout : L R C LFE Ls Rs
Sampling rate : 48.0 kHz
Frame rate : 31.250 FPS (1536 SPF)
Bit depth : 16 bits
Compression mode : Lossy
Delay relative to video : 12 s 0 ms
Stream size : 303 MiB (7%)
Title : Thai DVD Master
Language : Thai
Service kind : Complete Main
Default : Yes
Forced : Yes

Audio #2
ID : 3
Format : AC-3
Format/Info : Audio Coding 3
Commercial name : Dolby Digital
Codec ID : A_AC3
Duration : 1 h 34 min
Bit rate mode : Constant
Bit rate : 448 kb/s
Channel(s) : 6 channels
Channel layout : L R C LFE Ls Rs
Sampling rate : 48.0 kHz
Frame rate : 31.250 FPS (1536 SPF)
Bit depth : 16 bits
Compression mode : Lossy
Stream size : 303 MiB (7%)
Title : Thai DVD Master
Language : Thai
Service kind : Complete Main
Default : No
Forced : Yes

Text #1
ID : 4
Format : VobSub
Codec ID : S_VOBSUB
Codec ID/Info : Picture based subtitle format used on DVDs
Title : Thai 480p From DVD Master
Language : Thai
Default : No
Forced : Yes

Text #2
ID : 5
Format : VobSub
Codec ID : S_VOBSUB
Codec ID/Info : Picture based subtitle format used on DVDs
Title : Thai 720p
Language : Thai
Default : No
Forced : No

Text #3
ID : 6
Format : VobSub
Codec ID : S_VOBSUB
Codec ID/Info : Picture based subtitle format used on DVDs
Title : Thai 1080p
Language : Thai
Default : Yes
Forced : Yes

Text #4
ID : 7
Format : VobSub
Codec ID : S_VOBSUB
Codec ID/Info : Picture based subtitle format used on DVDs
Title : Thai 1080p Yellow
Language : Thai
Default : No
Forced : No

Text #5
ID : 8
Format : VobSub
Codec ID : S_VOBSUB
Codec ID/Info : Picture based subtitle format used on DVDs
Title : Thai 1080p BIG
Language : Thai
Default : No
Forced : No

Text #6
ID : 9
Format : PGS
Codec ID : S_HDMV/PGS
Codec ID/Info : Picture based subtitle format used on BDs/HD-DVDs
Title : Thai PGS
Language : Thai
Default : No
Forced : No

Text #7
ID : 10
Format : PGS
Codec ID : S_HDMV/PGS
Codec ID/Info : Picture based subtitle format used on BDs/HD-DVDs
Title : Thai PGS Yellow
Language : Thai
Default : No
Forced : No

Text #8
ID : 11
Format : VobSub
Codec ID : S_VOBSUB
Codec ID/Info : Picture based subtitle format used on DVDs
Title : English
Language : English
Default : No
Forced : No

Menu
00:00:00.000 : en:1
00:04:25.140 : en:2
00:11:23.641 : en:3
00:19:28.417 : en:4
00:25:46.336 : en:5
00:32:51.386 : en:6
00:36:55.421 : en:7
00:41:28.068 : en:8
00:47:08.032 : en:9
00:53:42.384 : en:10
01:00:59.320 : en:11
01:07:24.747 : en:12
01:12:21.168 : en:13
01:17:13.210 : en:14
01:23:22.871 : en:15
01:28:09.991 : en:16

DOWNLOAD


PART01 |||| PART02 |||| PART03 |||| PART04

PART01 |||| PART02 |||| PART03 |||| PART04

PART01 |||| PART02 |||| PART03 |||| PART04

PART01 |||| PART02 |||| PART03 |||| PART04


Leave A Reply

Your email address will not be published.

%d bloggers like this: