[MINI Super-HQ] The Kid Who Would Be King (2019) หนุ่มน้อยสู่จอมราชันย์ [1080p] [พากย์ไทย 5.1 + เสียงอังกฤษ DTS] [บรรยายไทย + อังกฤษ] [เสียงไทย + ซับไทย] [OPENLOAD]

0

The Kid Who Would Be King (2019)

โหลดหนัง  The Kid Who Would Be King (2019) หนุ่มน้อยสู่จอมราชันย์

The Kid Who Would Be King (2019) 2h | Action, Adventure, Family | 17 April 2019 (Netherlands) Summary: A band of kids embark on an epic quest to thwart a medieval menace.
Countries: UK, USALanguages: English

เรื่องย่อ The Kid Who Would Be King (2019) หนุ่มน้อยสู่จอมราชันย์

เรื่องราวของอเล็กซ์ (แอชบอร์น เซอร์กิส) เด็กชายที่คิดว่าตัวเองก็เป็นแค่คนไร้ตัวตนคนหนึ่ง จนกระทั่งบังเอิญไปเจอกับเอ็กซ์คาลิเบอร์ ดาบในตำนานที่ปักอยู่ในหินเข้าคราวนี้เขาเลยต้องรวบรวมทั้งผองเพื่อนและศัตรูเพื่อสร้างกลุ่มอัศวินร่วมกับพ่อมดเมอร์ลินในตำนาน (สจ๊วต) เพื่อเอาชนะแม่มดร้าย มอร์กาน่า(เฟอร์กูสัน) ให้ได้เมื่อมีอนาคตเป็นเดิมพัน อเล็กซ์จะต้องกลายเป็นผู้นำที่ยิ่งใหญ่อย่างที่เขาไม่เคยคิดฝันว่าตัวเองจะเป็นได้มาก่อน!!!

Complete name : [MINI Super-HQ]_The.Kid.Who.Would.Be.King.2019.1080p.BrRip.DTS.x264.One2loadup.com.mkv
Format : Matroska
Format version : Version 4
File size : 3.97 GiB
Duration : 2 h 0 min
Overall bit rate : 4 734 kb/s
Movie name : [MINI Super-HQ]_The.Kid.Who.Would.Be.King.2019.1080p.BrRip.DTS.x264.One2loadup.com
Encoded date : UTC 2010-02-22 21:41:31
Writing application : mkvmerge v5.9.0 (‘On The Loose’) built on Dec 9 2012 15:37:01
Writing library : libebml v1.3.0 + libmatroska v1.4.0

Video
ID : 1
Format : AVC
Format/Info : Advanced Video Codec
Format profile : [email protected]
Format settings : CABAC / 4 Ref Frames
Format settings, CABAC : Yes
Format settings, ReFrames : 4 frames
Codec ID : V_MPEG4/ISO/AVC
Duration : 2 h 0 min
Bit rate : 3 334 kb/s
Width : 1 920 pixels
Height : 804 pixels
Display aspect ratio : 2.40:1
Frame rate mode : Constant
Frame rate : 23.976 (24000/1001) FPS
Color space : YUV
Chroma subsampling : 4:2:0
Bit depth : 8 bits
Scan type : Progressive
Bits/(Pixel*Frame) : 0.090
Stream size : 2.88 GiB (73%)
Title : [MINI Super-HQ]_The.Kid.Who.Would.Be.King.2019.1080p.BrRip.DTS.x264.One2loadup.com
Writing library : x264 core 130 r2273 b3065e6
Encoding settings : cabac=1 / ref=3 / deblock=1:0:0 / analyse=0x3:0x113 / me=umh / subme=11 / psy=1 / psy_rd=1.00:0.00 / mixed_ref=1 / me_range=48 / chroma_me=1 / trellis=2 / 8x8dct=1 / cqm=0 / deadzone=21,11 / fast_pskip=1 / chroma_qp_offset=-2 / threads=10 / lookahead_threads=1 / sliced_threads=0 / nr=0 / decimate=1 / interlaced=0 / bluray_compat=0 / constrained_intra=0 / bframes=3 / b_pyramid=2 / b_adapt=1 / b_bias=0 / direct=1 / weightb=1 / open_gop=0 / weightp=2 / keyint=240 / keyint_min=24 / scenecut=40 / intra_refresh=0 / rc_lookahead=40 / rc=2pass / mbtree=1 / bitrate=3334 / ratetol=1.0 / qcomp=0.60 / qpmin=0 / qpmax=69 / qpstep=4 / cplxblur=20.0 / qblur=0.5 / ip_ratio=1.40 / aq=1:1.00
Language : English
Default : Yes
Forced : No
Color range : Limited
Color primaries : BT.709
Transfer characteristics : BT.709
Matrix coefficients : BT.709

Audio #1
ID : 2
Format : AC-3
Format/Info : Audio Coding 3
Commercial name : Dolby Digital
Codec ID : A_AC3
Duration : 2 h 0 min
Bit rate mode : Constant
Bit rate : 448 kb/s
Channel(s) : 6 channels
Channel layout : L R C LFE Ls Rs
Sampling rate : 48.0 kHz
Frame rate : 31.250 FPS (1536 SPF)
Bit depth : 16 bits
Compression mode : Lossy
Stream size : 385 MiB (9%)
Title : Thai BluRay Master
Language : Thai
Service kind : Complete Main
Default : Yes
Forced : Yes

Audio #2
ID : 3
Format : DTS
Format/Info : Digital Theater Systems
Codec ID : A_DTS
Duration : 2 h 0 min
Bit rate mode : Constant
Bit rate : 755 kb/s
Channel(s) : 6 channels
Channel layout : C L R Ls Rs LFE
Sampling rate : 48.0 kHz
Frame rate : 93.750 FPS (512 SPF)
Bit depth : 24 bits
Compression mode : Lossy
Stream size : 648 MiB (16%)
Title : English DTS
Language : English
Default : No
Forced : No

Text #1
ID : 4
Format : VobSub
Codec ID : S_VOBSUB
Codec ID/Info : Picture based subtitle format used on DVDs
Language : Thai
Default : Yes
Forced : Yes

Text #2
ID : 5
Format : VobSub
Codec ID : S_VOBSUB
Codec ID/Info : Picture based subtitle format used on DVDs
Title : Thai 480p
Language : Thai
Default : No
Forced : No

Text #3
ID : 6
Format : VobSub
Codec ID : S_VOBSUB
Codec ID/Info : Picture based subtitle format used on DVDs
Title : Thai 720p
Language : Thai
Default : No
Forced : No

Text #4
ID : 7
Format : VobSub
Codec ID : S_VOBSUB
Codec ID/Info : Picture based subtitle format used on DVDs
Title : Thai 1080p
Language : Thai
Default : No
Forced : No

Text #5
ID : 8
Format : VobSub
Codec ID : S_VOBSUB
Codec ID/Info : Picture based subtitle format used on DVDs
Title : Thai 1080p Yellow
Language : Thai
Default : No
Forced : No

Text #6
ID : 9
Format : VobSub
Codec ID : S_VOBSUB
Codec ID/Info : Picture based subtitle format used on DVDs
Title : Thai 1080p Out
Language : Thai
Default : No
Forced : No

Text #7
ID : 10
Format : VobSub
Codec ID : S_VOBSUB
Codec ID/Info : Picture based subtitle format used on DVDs
Title : Thai 1080p BIG
Language : Thai
Default : No
Forced : No

Text #8
ID : 11
Format : PGS
Codec ID : S_HDMV/PGS
Codec ID/Info : Picture based subtitle format used on BDs/HD-DVDs
Title : Thai PGS BluRay Master
Language : Thai
Default : No
Forced : No

Text #9
ID : 12
Format : PGS
Codec ID : S_HDMV/PGS
Codec ID/Info : Picture based subtitle format used on BDs/HD-DVDs
Title : Thai PGS Out
Language : Thai
Default : No
Forced : No

Text #10
ID : 13
Format : PGS
Codec ID : S_HDMV/PGS
Codec ID/Info : Picture based subtitle format used on BDs/HD-DVDs
Title : English
Language : English
Default : No
Forced : No

Menu
00:00:00.000 : en:00:00:00.000
00:06:30.015 : en:00:06:30.015
00:11:41.200 : en:00:11:41.200
00:15:52.869 : en:00:15:52.869
00:20:21.762 : en:00:20:21.762
00:27:00.410 : en:00:27:00.410
00:34:03.959 : en:00:34:03.959
00:40:08.239 : en:00:40:08.239
00:43:21.182 : en:00:43:21.182
00:47:42.735 : en:00:47:42.735
00:55:36.291 : en:00:55:36.291
00:59:38.325 : en:00:59:38.325
01:06:51.216 : en:01:06:51.216
01:11:45.551 : en:01:11:45.551
01:17:40.614 : en:01:17:40.614
01:21:47.903 : en:01:21:47.903
01:25:25.537 : en:01:25:25.537
01:27:57.772 : en:01:27:57.772
01:31:37.033 : en:01:31:37.033
01:33:56.881 : en:01:33:56.881
01:38:30.780 : en:01:38:30.780
01:44:10.995 : en:01:44:10.995
01:50:55.357 : en:01:50:55.357
01:53:32.848 : en:01:53:32.848

 

DOWNLOAD


PART01 |||| PART02 |||| PART03 |||| PART04

PART01 |||| PART02 |||| PART03 |||| PART04

PART01 |||| PART02 |||| PART03 |||| PART04

PART01 |||| PART02 |||| PART03 |||| PART04


Leave A Reply

Your email address will not be published.

%d bloggers like this: