[MINI Super-HQ] The Huntsman: Winter’s War (2016) พรานป่าและราชินีน้ำแข็ง ภาค 2 [1080p] [EXTENDED] [พากย์ไทย DTS + เสียงอังกฤษ DTS] [บรรยายไทย + อังกฤษ] [เสียงไทย + ซับไทย] [OPENLOAD]

2

The Huntsman: Winter's War (2016)

โหลดหนัง The Huntsman: Winter’s War (2016) พรานป่าและราชินีน้ำแข็ง ภาค 2

The Huntsman: Winter's War (2016) 1h 54min | Action, Adventure, Drama | 7 April 2016 (Netherlands) Summary: Eric and fellow warrior Sara, raised as members of ice Queen Freya's army, try to conceal their forbidden love as they fight to survive the wicked intentions of both Freya and her sister Ravenna.
Countries: USA, ChinaLanguages: English

เรื่องย่อ The Huntsman: Winter’s War (2016) พรานป่าและราชินีน้ำแข็ง ภาค 2

เธอรอน รับบทเป็นราชินีร้าย ราเวนน่า ที่หักหลัง เฟรย่า (บลันท์) น้องสาวผู้แสนดีของเธอด้วยการกระทำที่ไม่อาจให้อภัยได้ส่งผลให้หัวใจของนางเย็นชาต่อความรักและปลดปล่อยพลังน้ำแข็งที่ซุกซ่อนอยู่ในตัวออกมา เมื่อสงครามของสองราชินีเริ่มรุนแรง พรานป่าอีริค (เฮมส์เวิร์ธ)และนักรบสาวคู่ใจของเขา ซาร่า (เชสแทน) จึงต้องช่วยเฟรย่าเอาชนะพี่สาวของนาง หากไม่ต้องการให้ความชั่วร้ายของราเวนน่าต้องครองโลกไปชั่วกัปชั่วกัลป์!!!

Complete name : [MINI Super-HQ]_The.Huntsman.Winters.War.2016.EXTENDED.1080p.BrRip.DTS.x264.One2loadup.com.mkv
Format : Matroska
Format version : Version 4
File size : 4.16 GiB
Duration : 2 h 0 min
Overall bit rate : 4 956 kb/s
Movie name : [MINI Super-HQ]_The.Huntsman.Winters.War.2016.EXTENDED.1080p.BrRip.DTS.x264.One2loadup.com
Encoded date : UTC 2010-02-22 21:41:31
Writing application : mkvmerge v5.9.0 (‘On The Loose’) built on Dec 9 2012 15:37:01
Writing library : libebml v1.3.0 + libmatroska v1.4.0

Video
ID : 1
Format : AVC
Format/Info : Advanced Video Codec
Format profile : [email protected]
Format settings : CABAC / 4 Ref Frames
Format settings, CABAC : Yes
Format settings, ReFrames : 4 frames
Codec ID : V_MPEG4/ISO/AVC
Duration : 2 h 0 min
Bit rate : 3 366 kb/s
Width : 1 920 pixels
Height : 804 pixels
Display aspect ratio : 2.40:1
Frame rate mode : Constant
Frame rate : 23.976 FPS
Color space : YUV
Chroma subsampling : 4:2:0
Bit depth : 8 bits
Scan type : Progressive
Bits/(Pixel*Frame) : 0.091
Stream size : 2.80 GiB (67%)
Title : [MINI Super-HQ]_The.Huntsman.Winters.War.2016.EXTENDED.1080p.BrRip.DTS.x264.One2loadup.com
Writing library : x264 core 130 r2273 b3065e6
Encoding settings : cabac=1 / ref=3 / deblock=1:0:0 / analyse=0x3:0x113 / me=umh / subme=11 / psy=1 / psy_rd=1.00:0.00 / mixed_ref=1 / me_range=48 / chroma_me=1 / trellis=2 / 8x8dct=1 / cqm=0 / deadzone=21,11 / fast_pskip=1 / chroma_qp_offset=-2 / threads=10 / lookahead_threads=1 / sliced_threads=0 / nr=0 / decimate=1 / interlaced=0 / bluray_compat=0 / constrained_intra=0 / bframes=3 / b_pyramid=2 / b_adapt=1 / b_bias=0 / direct=1 / weightb=1 / open_gop=0 / weightp=2 / keyint=240 / keyint_min=24 / scenecut=40 / intra_refresh=0 / rc_lookahead=40 / rc=2pass / mbtree=1 / bitrate=3366 / ratetol=1.0 / qcomp=0.60 / qpmin=0 / qpmax=69 / qpstep=4 / cplxblur=20.0 / qblur=0.5 / ip_ratio=1.40 / aq=1:1.00
Language : English
Default : Yes
Forced : No
Color range : Limited
Color primaries : BT.709
Transfer characteristics : BT.709
Matrix coefficients : BT.709

Audio #1
ID : 2
Format : DTS
Format/Info : Digital Theater Systems
Codec ID : A_DTS
Duration : 2 h 0 min
Bit rate mode : Constant
Bit rate : 768 kb/s
Channel(s) : 6 channels
Channel layout : C L R Ls Rs LFE
Sampling rate : 48.0 kHz
Frame rate : 93.750 FPS (512 SPF)
Bit depth : 24 bits
Compression mode : Lossy
Stream size : 660 MiB (15%)
Title : Thai DTS BluRay Master
Language : Thai
Default : Yes
Forced : Yes

Audio #2
ID : 3
Format : DTS
Format/Info : Digital Theater Systems
Codec ID : A_DTS
Duration : 2 h 0 min
Bit rate mode : Constant
Bit rate : 755 kb/s
Channel(s) : 6 channels
Channel layout : C L R Ls Rs LFE
Sampling rate : 48.0 kHz
Frame rate : 93.750 FPS (512 SPF)
Bit depth : 24 bits
Compression mode : Lossy
Stream size : 649 MiB (15%)
Title : English DTS
Language : English
Default : No
Forced : No

Text #1
ID : 4
Format : VobSub
Codec ID : S_VOBSUB
Codec ID/Info : Picture based subtitle format used on DVDs
Title : Thai 480p
Language : Thai
Default : No
Forced : No

Text #2
ID : 5
Format : VobSub
Codec ID : S_VOBSUB
Codec ID/Info : Picture based subtitle format used on DVDs
Title : Thai 720p
Language : Thai
Default : No
Forced : No

Text #3
ID : 6
Format : VobSub
Codec ID : S_VOBSUB
Codec ID/Info : Picture based subtitle format used on DVDs
Title : Thai 1080p
Language : Thai
Default : Yes
Forced : Yes

Text #4
ID : 7
Format : VobSub
Codec ID : S_VOBSUB
Codec ID/Info : Picture based subtitle format used on DVDs
Title : Thai 1080p Yellow
Language : Thai
Default : No
Forced : No

Text #5
ID : 8
Format : VobSub
Codec ID : S_VOBSUB
Codec ID/Info : Picture based subtitle format used on DVDs
Title : Thai 1080p Out
Language : Thai
Default : No
Forced : No

Text #6
ID : 9
Format : VobSub
Codec ID : S_VOBSUB
Codec ID/Info : Picture based subtitle format used on DVDs
Title : Thai 1080p BIG
Language : Thai
Default : No
Forced : No

Text #7
ID : 10
Format : VobSub
Codec ID : S_VOBSUB
Codec ID/Info : Picture based subtitle format used on DVDs
Title : Thai 1080p Out [BIG]
Language : Thai
Default : No
Forced : No

Text #8
ID : 11
Format : PGS
Codec ID : S_HDMV/PGS
Codec ID/Info : Picture based subtitle format used on BDs/HD-DVDs
Title : Thai PGS BluRay Master
Language : Thai
Default : No
Forced : No

Text #9
ID : 12
Format : PGS
Codec ID : S_HDMV/PGS
Codec ID/Info : Picture based subtitle format used on BDs/HD-DVDs
Title : Thai PGS Out
Language : Thai
Default : No
Forced : No

Text #10
ID : 13
Format : VobSub
Codec ID : S_VOBSUB
Codec ID/Info : Picture based subtitle format used on DVDs
Title : English DTS
Language : English
Default : No
Forced : No

Menu
00:00:00.000 : en:Chapter 1
00:06:26.444 : en:Chapter 2
00:09:26.874 : en:Chapter 3
00:15:03.210 : en:Chapter 4
00:21:33.517 : en:Chapter 5
00:30:17.879 : en:Chapter 6
00:36:08.201 : en:Chapter 7
00:40:55.324 : en:Chapter 8
00:46:56.495 : en:Chapter 9
00:52:05.804 : en:Chapter 10
00:59:35.595 : en:Chapter 11
01:04:24.008 : en:Chapter 12
01:11:16.754 : en:Chapter 13
01:15:19.288 : en:Chapter 14
01:22:42.898 : en:Chapter 15
01:28:15.272 : en:Chapter 16
01:33:58.078 : en:Chapter 17
01:39:22.027 : en:Chapter 18
01:48:13.975 : en:Chapter 19
01:50:19.642 : en:Chapter 20

DOWNLOAD


PART01 |||| PART02 |||| PART03 |||| PART04 |||| PART05

PART01 |||| PART02 |||| PART03 |||| PART04 |||| PART05

PART01 |||| PART02 |||| PART03 |||| PART04 |||| PART05

PART01 |||| PART02 |||| PART03 |||| PART04 |||| PART05


2 Comments
  1. un says

    ไฟล์ 3,4 เสียครับ

    1. Admin
      Admin says

      เสียยังไงหว่าเช็คแล้วก็โหลดได้ปกติ นิฮ๊ะ

Leave A Reply

Your email address will not be published.

%d bloggers like this: