[MINI Super-HQ] The Hunger Games: Mockingjay – Part 2 (2015) เกมล่าเกม ม็อกกิ้งเจย์ ภาค 3 พาร์ท 2 [1080p] [พากย์ไทย DTS + เสียงอังกฤษ DTS] [บรรยายไทย + อังกฤษ] [เสียงไทย + ซับไทย] [OPENLOAD]

0

The Hunger Games Mockingjay Part 2 (2015) เกมล่าเกม ม็อกกิ้งเจย์ ภาค 3 พาร์ท 2

โหลดหนัง The Hunger Games Mockingjay Part 2 (2015) เกมล่าเกม ม็อกกิ้งเจย์ ภาค 3 พาร์ท 2

The Hunger Games: Mockingjay - Part 2 (2015) 2h 17min | Action, Adventure, Sci-Fi | 20 November 2015 (Canada) Summary: Katniss and a team of rebels from District 13 prepare for the final battle that will decide the fate of Panem.
Countries: USALanguages: English

เรื่องย่อ The Hunger Games Mockingjay Part 2 (2015) เกมล่าเกม ม็อกกิ้งเจย์ ภาค 3 พาร์ท 2

การต่อสู้ครั้งสุดท้ายของ แคตนิส เอฟเวอร์ดีน (เจนนิเฟอร์ ลอว์เรนซ์) ที่มีอนาคตของชาวพาเน็มเป็นเดิมพัน โดยครั้งนี้เธอร่วมมือกับสหายคนสนิทอย่าง เกล (เลียม เฮมส์เวิร์ธ) , ฟินนิค (แซม คลาฟลิน) และพีต้า (จอช ฮัทเชอร์สัน) ในภารกิจคืนเอกภาพให้กับเขต 13 และร่วมเผชิญหน้ากับประธานาธิบดีสโนว์ (โดนัลด์ ซัทเธอร์แลนด์) ผู้หวังทำลายชีวิตเธอให้ย่อยยับ โดยเป้าหมายสำคัญคือการปิดฉากการข่มเหงจากแคปปิตอล!!!

Complete name : [MINI Super-HQ]_The.Hunger.Games.Mockingjay.Part.2.2015.1080p.BrRip.DTS.x264.One2loadup.com.mkv
Format : Matroska
Format version : Version 4
File size : 4.48 GiB
Duration : 2 h 16 min
Overall bit rate : 4 680 kb/s
Movie name : [MINI Super-HQ]_The.Hunger.Games.Mockingjay.Part.2.2015.1080p.BrRip.DTS.x264.One2loadup.com
Encoded date : UTC 2016-07-27 06:30:14
Writing application : mkvmerge v9.3.1 (‘Mask Machine’) 64bit
Writing library : libebml v1.3.4 + libmatroska v1.4.5

Video
ID : 1
Format : AVC
Format/Info : Advanced Video Codec
Format profile : [email protected]
Format settings : CABAC / 4 Ref Frames
Format settings, CABAC : Yes
Format settings, ReFrames : 4 frames
Codec ID : V_MPEG4/ISO/AVC
Duration : 2 h 16 min
Bit rate : 3 113 kb/s
Width : 1 920 pixels
Height : 800 pixels
Display aspect ratio : 2.40:1
Frame rate mode : Constant
Frame rate : 23.976 (24000/1001) FPS
Color space : YUV
Chroma subsampling : 4:2:0
Bit depth : 8 bits
Scan type : Progressive
Bits/(Pixel*Frame) : 0.085
Stream size : 2.98 GiB (67%)
Title : [MINI Super-HQ]_The.Hunger.Games.Mockingjay.Part.2.2015.1080p.BrRip.DTS.x264.One2loadup.com
Writing library : x264 core 130 r2273 b3065e6
Encoding settings : cabac=1 / ref=4 / deblock=1:0:0 / analyse=0x3:0x113 / me=umh / subme=11 / psy=1 / psy_rd=1.00:0.00 / mixed_ref=1 / me_range=64 / chroma_me=1 / trellis=2 / 8x8dct=1 / cqm=0 / deadzone=21,11 / fast_pskip=1 / chroma_qp_offset=-2 / threads=10 / lookahead_threads=1 / sliced_threads=0 / nr=0 / decimate=1 / interlaced=0 / bluray_compat=0 / constrained_intra=0 / bframes=4 / b_pyramid=2 / b_adapt=2 / b_bias=0 / direct=1 / weightb=1 / open_gop=0 / weightp=2 / keyint=240 / keyint_min=24 / scenecut=40 / intra_refresh=0 / rc_lookahead=40 / rc=2pass / mbtree=1 / bitrate=3113 / ratetol=1.0 / qcomp=0.60 / qpmin=0 / qpmax=69 / qpstep=4 / cplxblur=20.0 / qblur=0.5 / ip_ratio=1.40 / aq=1:1.00
Language : English
Default : Yes
Forced : No
Color range : Limited
Color primaries : BT.709
Transfer characteristics : BT.709
Matrix coefficients : BT.709

Audio #1
ID : 2
Format : DTS
Format/Info : Digital Theater Systems
Codec ID : A_DTS
Duration : 2 h 16 min
Bit rate mode : Constant
Bit rate : 768 kb/s
Channel(s) : 6 channels
Channel layout : C L R Ls Rs LFE
Sampling rate : 48.0 kHz
Frame rate : 93.750 FPS (512 SPF)
Bit depth : 24 bits
Compression mode : Lossy
Stream size : 752 MiB (16%)
Title : THAI DTS @768Kbps
Language : Thai
Default : Yes
Forced : No

Audio #2
ID : 3
Format : DTS
Format/Info : Digital Theater Systems
Codec ID : A_DTS
Duration : 2 h 16 min
Bit rate mode : Constant
Bit rate : 755 kb/s
Channel(s) : 6 channels
Channel layout : C L R Ls Rs LFE
Sampling rate : 48.0 kHz
Frame rate : 93.750 FPS (512 SPF)
Bit depth : 24 bits
Compression mode : Lossy
Stream size : 739 MiB (16%)
Title : ENGLISH DTS @755 Kbps
Language : English
Default : No
Forced : No

Text #1
ID : 4
Format : VobSub
Muxing mode : zlib
Codec ID : S_VOBSUB
Codec ID/Info : Picture based subtitle format used on DVDs
Duration : 2 h 4 min
Bit rate : 1 389 b/s
Count of elements : 1313
Stream size : 1.24 MiB (0%)
Title : TH 480P
Language : Thai
Default : No
Forced : No

Text #2
ID : 5
Format : VobSub
Muxing mode : zlib
Codec ID : S_VOBSUB
Codec ID/Info : Picture based subtitle format used on DVDs
Duration : 2 h 4 min
Bit rate : 2 704 b/s
Count of elements : 1314
Stream size : 2.41 MiB (0%)
Title : TH 720P
Language : Thai
Default : No
Forced : No

Text #3
ID : 6
Format : VobSub
Muxing mode : zlib
Codec ID : S_VOBSUB
Codec ID/Info : Picture based subtitle format used on DVDs
Duration : 2 h 4 min
Bit rate : 4 375 b/s
Count of elements : 1314
Stream size : 3.90 MiB (0%)
Title : TH 1080P
Language : Thai
Default : Yes
Forced : Yes

Text #4
ID : 7
Format : PGS
Muxing mode : zlib
Codec ID : S_HDMV/PGS
Codec ID/Info : Picture based subtitle format used on BDs/HD-DVDs
Duration : 2 h 4 min
Bit rate : 14.4 kb/s
Count of elements : 2628
Stream size : 12.8 MiB (0%)
Title : TH PGS
Language : Thai
Default : No
Forced : No

Text #5
ID : 8
Format : VobSub
Muxing mode : zlib
Codec ID : S_VOBSUB
Codec ID/Info : Picture based subtitle format used on DVDs
Duration : 2 h 4 min
Bit rate : 4 428 b/s
Count of elements : 1349
Stream size : 3.94 MiB (0%)
Title : EN
Language : English
Default : No
Forced : No

Text #6
ID : 9
Format : PGS
Muxing mode : zlib
Codec ID : S_HDMV/PGS
Codec ID/Info : Picture based subtitle format used on BDs/HD-DVDs
Duration : 2 h 4 min
Bit rate : 18.9 kb/s
Count of elements : 2698
Stream size : 16.9 MiB (0%)
Title : EN PGS
Language : English
Default : No
Forced : No

DOWNLOAD


PART01 |||| PART02 |||| PART03 |||| PART04 |||| PART05

PART01 |||| PART02 |||| PART03 |||| PART04 |||| PART05

PART01 |||| PART02 |||| PART03 |||| PART04 |||| PART05

PART01 |||| PART02 |||| PART03 |||| PART04 |||| PART05


Leave A Reply

Your email address will not be published.

%d bloggers like this: