[MINI Super-HQ] The Hunger Games: Mockingjay – Part 1 (2014) เกมล่าเกม ม็อกกิ้งเจย์ ภาค 3 พาร์ท 1 [1080p] [พากย์ไทย DTS + เสียงอังกฤษ DTS] [บรรยายไทย + อังกฤษ] [เสียงไทย + ซับไทย] [OPENLOAD]

0

โหลดหนัง The Hunger Games Mockingjay Part 1 (2014) เกมล่าเกม ม็อกกิ้งเจย์ ภาค 3 พาร์ท 1

The Hunger Games: Mockingjay - Part 1 (2014) 2h 3min | Action, Adventure, Sci-Fi | 21 November 2014 (Canada) Summary: Katniss Everdeen is in District 13 after she shatters the games forever. Under the leadership of President Coin and the advice of her trusted friends, Katniss spreads her wings as she fights to save Peeta and a nation moved by her courage.
Countries: USALanguages: English

เรื่องย่อ The Hunger Games Mockingjay Part 1 (2014) เกมล่าเกม ม็อกกิ้งเจย์ ภาค 3 พาร์ท 1

ภายหลังจากการแข่งขันอันเข้มข้นใน Quarter Quell ครั้งล่าสุด ที่สาวน้อยผู้มากับไฟ แคตนิส เอฟเวอร์ดีน (เจนนิเฟอร์ ลอว์เรนซ์) ได้ก่อให้เกิดความเปลี่ยนแปลงครั้งใหญ่หลวงขึ้น และมันได้นำมาซึ่งจุดเริ่มต้นที่แท้จริงของสงครามที่ แท้จริง ที่เธอจะไม่ยอมสยบต่อแคปิตอลอีกต่อไป โดยมีแคทนิสในฐานะสัญลักษณ์ของ “ม็อคกิ้งเจย์” จะเป็นผู้นำในการลุกขึ้นต่อต้านครั้งนี้ร่วมกับ เกล (เลียม เฮมส์เวิร์ธ) เพื่อนรักจากเขต 12 , ฟินนิก (แซม คลาฟลิน) เพื่อนร่วมเกมจาก Quarter Quell และพลูตาร์ช (ฟิลิป ซีมัวร์ ฮอฟฟ์แมน) เกมเมคเกอร์ที่ขอหักหลังแคปิตอล แต่ทุกอย่างไม่ได้ง่ายอย่างที่คิดเมื่อชายหนุ่มที่เคยต่อสู้เคียงข้างเธออย่าง พีต้า เมลลาร์ค (จอช ฮัทเชอร์สัน) ต้องถูกแคปิตอลจับเป็นตัวประกัน และประธานาธิบดีสโนว์ (โดนัลด์ ซัทเธอร์แลนด์) ก็ดูเหมือนจะไม่ยอมอ่อนข้อให้อีกต่อไปในสงครามครั้งนี้ แคทนิส หรือ แคปิตอล ใครจะกุมชะตาแห่งพาเน็ม!!!

Complete name : [MINI Super-HQ]_The.Hunger.Games.Mockingjay.Part.1.2014.1080p.BrRip.DTS.x264.One2loadup.com.mkv
Format : Matroska
Format version : Version 4
File size : 4.48 GiB
Duration : 2 h 2 min
Overall bit rate mode : Variable
Overall bit rate : 5 220 kb/s
Movie name : [MINI Super-HQ]_The.Hunger.Games.Mockingjay.Part.1.2014.1080p.BrRip.DTS.x264.One2loadup.com
Encoded date : UTC 2016-07-27 05:29:54
Writing application : mkvmerge v9.3.1 (‘Mask Machine’) 64bit
Writing library : libebml v1.3.4 + libmatroska v1.4.5

Video
ID : 1
Format : AVC
Format/Info : Advanced Video Codec
Format profile : [email protected]
Format settings : CABAC / 4 Ref Frames
Format settings, CABAC : Yes
Format settings, ReFrames : 4 frames
Codec ID : V_MPEG4/ISO/AVC
Duration : 2 h 2 min
Bit rate mode : Variable
Bit rate : 3 680 kb/s
Maximum bit rate : 100.0 Mb/s
Width : 1 920 pixels
Height : 800 pixels
Display aspect ratio : 2.40:1
Frame rate mode : Constant
Frame rate : 23.976 FPS
Color space : YUV
Chroma subsampling : 4:2:0
Bit depth : 8 bits
Scan type : Progressive
Bits/(Pixel*Frame) : 0.100
Stream size : 3.16 GiB (70%)
Title : [MINI Super-HQ]_The.Hunger.Games.Mockingjay.Part.1.2014.1080p.BrRip.DTS.x264.One2loadup.com
Writing library : x264 core 130 r2273 b3065e6
Encoding settings : cabac=1 / ref=4 / deblock=1:0:0 / analyse=0x3:0x133 / me=umh / subme=11 / psy=1 / psy_rd=1.00:0.15 / mixed_ref=1 / me_range=64 / chroma_me=1 / trellis=2 / 8x8dct=1 / cqm=0 / deadzone=21,11 / fast_pskip=1 / chroma_qp_offset=-3 / threads=16 / lookahead_threads=1 / sliced_threads=0 / nr=0 / decimate=1 / interlaced=0 / bluray_compat=0 / constrained_intra=0 / bframes=4 / b_pyramid=2 / b_adapt=2 / b_bias=0 / direct=3 / weightb=1 / open_gop=0 / weightp=2 / keyint=250 / keyint_min=23 / scenecut=40 / intra_refresh=0 / rc_lookahead=100 / rc=2pass / mbtree=1 / bitrate=3680 / ratetol=1.0 / qcomp=0.60 / qpmin=0 / qpmax=69 / qpstep=4 / cplxblur=20.0 / qblur=0.5 / vbv_maxrate=99999 / vbv_bufsize=99999 / nal_hrd=vbr / ip_ratio=1.40 / aq=1:1.00
Language : English
Default : Yes
Forced : No

Audio #1
ID : 2
Format : DTS
Format/Info : Digital Theater Systems
Codec ID : A_DTS
Duration : 2 h 2 min
Bit rate mode : Constant
Bit rate : 755 kb/s
Channel(s) : 6 channels
Channel layout : C L R Ls Rs LFE
Sampling rate : 48.0 kHz
Frame rate : 93.750 FPS (512 SPF)
Bit depth : 24 bits
Compression mode : Lossy
Delay relative to video : 6 ms
Stream size : 663 MiB (14%)
Title : THAI DTS @755Kbps
Language : Thai
Default : Yes
Forced : No

Audio #2
ID : 3
Format : DTS
Format/Info : Digital Theater Systems
Codec ID : A_DTS
Duration : 2 h 2 min
Bit rate mode : Constant
Bit rate : 755 kb/s
Channel(s) : 6 channels
Channel layout : C L R Ls Rs LFE
Sampling rate : 48.0 kHz
Frame rate : 93.750 FPS (512 SPF)
Bit depth : 24 bits
Compression mode : Lossy
Stream size : 663 MiB (14%)
Title : ENGLISH DTS @755Kbps
Language : English
Default : No
Forced : No

Text #1
ID : 4
Format : VobSub
Muxing mode : zlib
Codec ID : S_VOBSUB
Codec ID/Info : Picture based subtitle format used on DVDs
Duration : 1 h 49 min
Bit rate : 1 934 b/s
Count of elements : 1267
Stream size : 1.52 MiB (0%)
Title : TH 480P
Language : Thai
Default : No
Forced : No

Text #2
ID : 5
Format : VobSub
Muxing mode : zlib
Codec ID : S_VOBSUB
Codec ID/Info : Picture based subtitle format used on DVDs
Duration : 1 h 49 min
Bit rate : 5 370 b/s
Count of elements : 1267
Stream size : 4.22 MiB (0%)
Title : TH 1080P
Language : Thai
Default : No
Forced : No

Text #3
ID : 6
Format : PGS
Muxing mode : zlib
Codec ID : S_HDMV/PGS
Codec ID/Info : Picture based subtitle format used on BDs/HD-DVDs
Duration : 1 h 50 min
Bit rate : 13.3 kb/s
Count of elements : 2536
Stream size : 10.5 MiB (0%)
Title : TH PGS
Language : Thai
Default : No
Forced : No

Text #4
ID : 7
Format : PGS
Muxing mode : zlib
Codec ID : S_HDMV/PGS
Codec ID/Info : Picture based subtitle format used on BDs/HD-DVDs
Duration : 1 h 49 min
Bit rate : 10.5 kb/s
Count of elements : 2539
Stream size : 8.28 MiB (0%)
Title : EN PGS
Language : English
Default : No
Forced : No

DOWNLOAD


PART01 |||| PART02 |||| PART03 |||| PART04 |||| PART05

PART01 |||| PART02 |||| PART03 |||| PART04 |||| PART05

PART01 |||| PART02 |||| PART03 |||| PART04 |||| PART05

PART01 |||| PART02 |||| PART03 |||| PART04 |||| PART05


Leave A Reply

Your email address will not be published.

%d bloggers like this: