[MINI Super-HQ] The Hunger Games Catching Fire (2013) เกมล่าเกม แคชชิ่งไฟเออร์ ภาค 2 [1080p] [พากย์ไทย DTS + เสียงอังกฤษ DTS] [บรรยายไทย + อังกฤษ] [เสียงไทย + ซับไทย] [OPENLOAD]

0

The Hunger Games Catching Fire (2013) เกมล่าเกม แคชชิ่งไฟเออร์ ภาค 2

โหลดหนัง  The Hunger Games Catching Fire (2013) เกมล่าเกม แคชชิ่งไฟเออร์ ภาค 2

เรื่องย่อ The Hunger Games Catching Fire (2013) เกมล่าเกม แคชชิ่งไฟเออร์ ภาค 2

หลังจาก แคตนิส เอฟเวอร์ดีน (เจนนิเฟอร์ ลอว์เรนซ์) และพีต้า เมลลาร์ก (จอช ฮัทเชอร์สัน) พิชิตเกมล่าชีวิต นับว่าเป็นการพลิกประวัติศาสตร์ของเกมล่าชีวิตที่ดำเนินต่อเนื่องมาถึง 74 ปีเต็ม การกระทำของเธอเป็นการท้าทายอำนาจของ “แคปิตอล” ทำให้ผู้คนในเขตต่างๆ ได้ตระหนักถึงพลังของตนเองซึ่งสร้างความไม่พอใจแก่ประธานาธิบดีสโนว์ ดังนั้นจึงได้วางแผนการอันล้ำลึกและโหดเหี้ยมอย่างที่ใครก็คาดไม่ถึง!!!

Complete name : [MINI Super-HQ]_The.Hunger.Games.Catching.Fire.2013.1080p.BrRip.DTS.x264.One2loadup.com.mkv
Format : Matroska
Format version : Version 4
File size : 4.32 GiB
Duration : 2 h 17 min
Overall bit rate mode : Variable
Overall bit rate : 4 506 kb/s
Movie name : [MINI Super-HQ]_The.Hunger.Games.Catching.Fire.2013.1080p.BrRip.DTS.x264.One2loadup.com
Encoded date : UTC 2016-07-27 04:52:15
Writing application : mkvmerge v9.3.1 (‘Mask Machine’) 64bit
Writing library : libebml v1.3.4 + libmatroska v1.4.5

Video
ID : 1
Format : AVC
Format/Info : Advanced Video Codec
Format profile : [email protected]
Format settings : CABAC / 5 Ref Frames
Format settings, CABAC : Yes
Format settings, ReFrames : 5 frames
Codec ID : V_MPEG4/ISO/AVC
Duration : 2 h 17 min
Bit rate mode : Variable
Bit rate : 2 900 kb/s
Maximum bit rate : 100.0 Mb/s
Width : 1 920 pixels
Height : 800 pixels
Display aspect ratio : 2.40:1
Frame rate mode : Constant
Frame rate : 23.976 FPS
Color space : YUV
Chroma subsampling : 4:2:0
Bit depth : 8 bits
Scan type : Progressive
Bits/(Pixel*Frame) : 0.079
Stream size : 2.84 GiB (66%)
Title : [MINI Super-HQ]_The.Hunger.Games.Catching.Fire.2013.1080p.BrRip.DTS.x264.One2loadup.com
Writing library : x264 core 125 r2200 999b753
Encoding settings : cabac=1 / ref=5 / deblock=1:0:0 / analyse=0x3:0x133 / me=umh / subme=10 / psy=1 / psy_rd=1.00:0.15 / mixed_ref=1 / me_range=24 / chroma_me=1 / trellis=2 / 8x8dct=1 / cqm=0 / deadzone=21,11 / fast_pskip=1 / chroma_qp_offset=-3 / threads=16 / lookahead_threads=2 / sliced_threads=0 / nr=0 / decimate=1 / interlaced=0 / bluray_compat=0 / constrained_intra=0 / bframes=4 / b_pyramid=2 / b_adapt=2 / b_bias=0 / direct=3 / weightb=1 / open_gop=0 / weightp=2 / keyint=250 / keyint_min=24 / scenecut=40 / intra_refresh=0 / rc_lookahead=60 / rc=2pass / mbtree=1 / bitrate=2900 / ratetol=1.0 / qcomp=0.60 / qpmin=0 / qpmax=69 / qpstep=4 / cplxblur=20.0 / qblur=0.5 / vbv_maxrate=99999 / vbv_bufsize=99999 / nal_hrd=vbr / ip_ratio=1.40 / aq=1:1.00
Language : English
Default : Yes
Forced : No

Audio #1
ID : 2
Format : DTS
Format/Info : Digital Theater Systems
Codec ID : A_DTS
Duration : 2 h 17 min
Bit rate mode : Constant
Bit rate : 755 kb/s
Channel(s) : 6 channels
Channel layout : C L R Ls Rs LFE
Sampling rate : 48.0 kHz
Frame rate : 93.750 FPS (512 SPF)
Bit depth : 24 bits
Compression mode : Lossy
Delay relative to video : 1 s 730 ms
Stream size : 740 MiB (17%)
Title : THAI DTS @755Kbps
Language : Thai
Default : Yes
Forced : No

Audio #2
ID : 3
Format : DTS
Format/Info : Digital Theater Systems
Codec ID : A_DTS
Duration : 2 h 17 min
Bit rate mode : Constant
Bit rate : 755 kb/s
Channel(s) : 6 channels
Channel layout : C L R Ls Rs LFE
Sampling rate : 48.0 kHz
Frame rate : 93.750 FPS (512 SPF)
Bit depth : 24 bits
Compression mode : Lossy
Stream size : 740 MiB (17%)
Title : ENGLISH DTS @755Kbps
Language : English
Default : No
Forced : No

Text #1
ID : 4
Format : VobSub
Muxing mode : zlib
Codec ID : S_VOBSUB
Codec ID/Info : Picture based subtitle format used on DVDs
Duration : 2 h 15 min
Bit rate : 1 260 b/s
Count of elements : 1596
Stream size : 1.22 MiB (0%)
Title : TH 480P
Language : Thai
Default : No
Forced : No

Text #2
ID : 5
Format : VobSub
Muxing mode : zlib
Codec ID : S_VOBSUB
Codec ID/Info : Picture based subtitle format used on DVDs
Duration : 2 h 15 min
Bit rate : 3 422 b/s
Count of elements : 1596
Stream size : 3.31 MiB (0%)
Title : TH 1080P
Language : Thai
Default : No
Forced : No

Text #3
ID : 6
Format : PGS
Muxing mode : zlib
Codec ID : S_HDMV/PGS
Codec ID/Info : Picture based subtitle format used on BDs/HD-DVDs
Duration : 2 h 15 min
Bit rate : 10.1 kb/s
Count of elements : 3192
Stream size : 9.77 MiB (0%)
Title : TH PGS
Language : Thai
Default : No
Forced : No

Text #4
ID : 7
Format : PGS
Muxing mode : zlib
Codec ID : S_HDMV/PGS
Codec ID/Info : Picture based subtitle format used on BDs/HD-DVDs
Duration : 2 h 13 min
Bit rate : 19.1 kb/s
Count of elements : 3392
Stream size : 18.3 MiB (0%)
Title : EN PGS
Language : English
Default : Yes
Forced : No

DOWNLOAD


PART01 |||| PART02 |||| PART03 |||| PART04 |||| PART05

PART01 |||| PART02 |||| PART03 |||| PART04 |||| PART05

PART01 |||| PART02 |||| PART03 |||| PART04 |||| PART05

PART01 |||| PART02 |||| PART03 |||| PART04 |||| PART05


Leave A Reply

Your email address will not be published.

%d bloggers like this: