[MINI Super-HQ] The Hunger Games (2012) เกมล่าเกม ภาค 1 [1080p] [พากย์ไทย DTS + เสียงอังกฤษ DTS] [บรรยายไทย + อังกฤษ] [เสียงไทย + ซับไทย] [OPENLOAD]

0

โหลดหนัง The Hunger Games (2012) เกมล่าเกม ภาค 1

The Hunger Games (2012) 2h 22min | Action, Adventure, Sci-Fi | 23 March 2012 (Canada) Summary: Katniss Everdeen voluntarily takes her younger sister's place in the Hunger Games: a televised competition in which two teenagers from each of the twelve Districts of Panem are chosen at random to fight to the death.
Countries: USALanguages: English

เรื่องย่อ The Hunger Games (2012) เกมล่าเกม ภาค 1

ในอนาคตสงครามทำให้โลกกลายเป็นยุคมืดอีกครั้ง ทั้ง 12 เขตตกอยู่ภายใต้การปกครองของ “แคปปิตอล” ที่กำหนดให้ทั้ง 12 เขตจะต้องส่งเด็กผู้หญิงหนึ่งและเด็กผู้ชายหนึ่ง เข้าร่วม Hunger Games ที่มีกฎง่าย ๆ คือให้เด็กทั้ง 24 คนต่อสู้กันต่อหน้าทีวีจนเหลือผู้รอดเพียงคนเดียวทุก ปี เเเละเมื่อน้องสาวของ แคตนิส เอเวอร์ดีน (เจนนิเฟอร์ ลอว์เรนซ์) จากเขต 12 กลายเป็นผู้โชคร้ายคนล่าสุด เธอไม่มีทางเลือกนอกจากเสนอตัวเองแทน และต้องเดินทางไปเข้าร่วมเกมกับ พีต้า เมลลาร์ก (จอช ฮัทเชอร์สัน) ตัวแทนจากเขตอีกคน โดยมี เกล (เลียม เฮมส์เวิร์ธ) เพื่อนสนิทของ แคทนิส ที่พยายามช่วยเธอจากเกมมรณะนี้ แคทนิส ต้องเลือกระหว่างมนุษยธรรมหรือการเอาตัวรอด ชีวิตหรือความรัก จุดมุ่งหมายเดียวก็คือการเอาชนะเกมล่าชีวิตเพื่อกลับ บ้าน!!!

Complete name : [MINI Super-HQ]_The.Hunger.Games.2012.1080p.BrRip.DTS.x264.One2loadup.com.mkv
Format : Matroska
Format version : Version 4
File size : 4.53 GiB
Duration : 2 h 22 min
Overall bit rate : 4 551 kb/s
Movie name : [MINI Super-HQ]_The.Hunger.Games.2012.1080p.BrRip.DTS.x264.One2loadup.com
Encoded date : UTC 2016-07-27 04:31:37
Writing application : mkvmerge v9.3.1 (‘Mask Machine’) 64bit
Writing library : libebml v1.3.4 + libmatroska v1.4.5

Video
ID : 1
Format : AVC
Format/Info : Advanced Video Codec
Format profile : [email protected]
Format settings : CABAC / 4 Ref Frames
Format settings, CABAC : Yes
Format settings, ReFrames : 4 frames
Codec ID : V_MPEG4/ISO/AVC
Duration : 2 h 22 min
Bit rate : 3 000 kb/s
Width : 1 920 pixels
Height : 800 pixels
Display aspect ratio : 2.40:1
Frame rate mode : Variable
Frame rate : 23.976 (24000/1001) FPS
Color space : YUV
Chroma subsampling : 4:2:0
Bit depth : 8 bits
Scan type : Progressive
Bits/(Pixel*Frame) : 0.081
Stream size : 2.99 GiB (66%)
Title : [MINI Super-HQ]_The.Hunger.Games.2012.1080p.BrRip.DTS.x264.One2loadup.com
Writing library : x264 core 120
Encoding settings : cabac=1 / ref=3 / deblock=1:0:0 / analyse=0x3:0x113 / me=umh / subme=10 / psy=1 / psy_rd=1.00:0.00 / mixed_ref=1 / me_range=32 / chroma_me=1 / trellis=2 / 8x8dct=1 / cqm=0 / deadzone=21,11 / fast_pskip=1 / chroma_qp_offset=-2 / threads=12 / sliced_threads=0 / nr=0 / decimate=1 / interlaced=0 / bluray_compat=0 / constrained_intra=0 / bframes=3 / b_pyramid=2 / b_adapt=2 / b_bias=0 / direct=1 / weightb=1 / open_gop=0 / weightp=2 / keyint=240 / keyint_min=24 / scenecut=40 / intra_refresh=0 / rc_lookahead=50 / rc=2pass / mbtree=1 / bitrate=3000 / ratetol=1.0 / qcomp=0.60 / qpmin=3 / qpmax=69 / qpstep=4 / cplxblur=20.0 / qblur=0.5 / ip_ratio=1.40 / aq=1:1.00
Language : English
Default : Yes
Forced : No
Color range : Limited
Color primaries : BT.709
Transfer characteristics : BT.709
Matrix coefficients : BT.709

Audio #1
ID : 2
Format : DTS
Format/Info : Digital Theater Systems
Codec ID : A_DTS
Duration : 2 h 22 min
Bit rate mode : Constant
Bit rate : 768 kb/s
Channel(s) : 6 channels
Channel layout : C L R Ls Rs LFE
Sampling rate : 48.0 kHz
Frame rate : 93.750 FPS (512 SPF)
Bit depth : 24 bits
Compression mode : Lossy
Stream size : 783 MiB (17%)
Title : THAI DTS @768Kbps
Language : Thai
Default : Yes
Forced : No

Audio #2
ID : 3
Format : DTS
Format/Info : Digital Theater Systems
Codec ID : A_DTS
Duration : 2 h 22 min
Bit rate mode : Constant
Bit rate : 755 kb/s
Channel(s) : 6 channels
Channel layout : C L R Ls Rs LFE
Sampling rate : 48.0 kHz
Frame rate : 93.750 FPS (512 SPF)
Bit depth : 24 bits
Compression mode : Lossy
Stream size : 769 MiB (17%)
Title : ENGLISH DTS @755Kbps
Language : English
Default : No
Forced : No

Text #1
ID : 4
Format : VobSub
Muxing mode : zlib
Codec ID : S_VOBSUB
Codec ID/Info : Picture based subtitle format used on DVDs
Duration : 2 h 13 min
Bit rate : 960 b/s
Count of elements : 1097
Stream size : 936 KiB (0%)
Title : TH 480P
Language : Thai
Default : No
Forced : No

Text #2
ID : 5
Format : VobSub
Muxing mode : zlib
Codec ID : S_VOBSUB
Codec ID/Info : Picture based subtitle format used on DVDs
Duration : 2 h 13 min
Bit rate : 2 853 b/s
Count of elements : 1097
Stream size : 2.72 MiB (0%)
Title : TH 1080P
Language : Thai
Default : No
Forced : No

Text #3
ID : 6
Format : VobSub
Muxing mode : zlib
Codec ID : S_VOBSUB
Codec ID/Info : Picture based subtitle format used on DVDs
Duration : 2 h 11 min
Bit rate : 1 241 b/s
Count of elements : 1090
Stream size : 1.17 MiB (0%)
Title : EN 1080P
Language : English
Default : No
Forced : No

Text #4
ID : 7
Format : PGS
Muxing mode : zlib
Codec ID : S_HDMV/PGS
Codec ID/Info : Picture based subtitle format used on BDs/HD-DVDs
Duration : 2 h 13 min
Bit rate : 7 990 b/s
Count of elements : 2194
Stream size : 7.60 MiB (0%)
Title : TH PGS
Language : Thai
Default : No
Forced : No

Text #5
ID : 8
Format : PGS
Muxing mode : zlib
Codec ID : S_HDMV/PGS
Codec ID/Info : Picture based subtitle format used on BDs/HD-DVDs
Duration : 2 h 11 min
Bit rate : 14.4 kb/s
Count of elements : 2222
Stream size : 13.5 MiB (0%)
Title : EN PGS
Language : English
Default : Yes
Forced : No

DOWNLOAD


PART01 |||| PART02 |||| PART03 |||| PART04 |||| PART05

PART01 |||| PART02 |||| PART03 |||| PART04 |||| PART05

PART01 |||| PART02 |||| PART03 |||| PART04 |||| PART05

PART01 |||| PART02 |||| PART03 |||| PART04 |||| PART05


Leave A Reply

Your email address will not be published.

%d bloggers like this: