เว็บโหลดหนัง HD MINI-HD SUPER-HQ Full-HD 1080p One2up VIP Master Zoom ซูม หนังใหม่ ออนไลน์ มาสเตอร์ ไทย จีน ฝรั่ง การ์ตูน

[MINI Super-HQ] The Good Dinosaur (2015) ผจญภัยไดโนเสาร์เพื่อนรัก [1080p] [พากย์ไทย 5.1 + อังกฤษ DTS] [บรรยายไทย + อังกฤษ] [เสียงไทย + ซับไทย] [ONE2UP]

0

The Good Dinosaur (2015) ผจญภัยไดโนเสาร์เพื่อนรัก

โหลดหนัง The Good Dinosaur (2015) ผจญภัยไดโนเสาร์เพื่อนรัก  

เรื่องย่อ The Good Dinosaur (2015) ผจญภัยไดโนเสาร์เพื่อนรัก

เป็นเรื่องราวของ การตั้งคำถามว่าจะเกิดอะไรขึ้น ถ้าดาวเคราะห์น้อยไม่ได้ชนโลกจนไดโนเสาร์สูญพันธุ์ แต่หากมันมีชีวิตร่วมกันกับมนุษย์จะเป็นอย่างไร ซึ่งเล่าเรื่องผ่านตัวละครชื่อ อัลโล ไดโนเสาร์พันธุ์คอยาวกินพืชเป็นอาหาร หรือ อะแพโทซอรัส ซึ่งเขาจะต้องเผชิญกับปัญหาเมื่อวันหนึ่งกลุ่มคนสุดป่วนเข้ามาทำให้ชีวิตของครอบครัวไดโนเสาร์ของเขาไม่สงบสุขอีกต่อไป เรื่องราวจะเป็นอย่างไร ติดตามชมใน The Good Dinosaur

Complete name : [MINI Super-HQ]_The.Good.Dinosaur.2015.1080p.DTS.x264.One2loadup.com.mkv
Format : Matroska
Format version : Version 4 / Version 2
File size : 3.72 GiB
Duration : 1 h 33 min
Overall bit rate : 5 678 kb/s
Movie name : [MINI Super-HQ]_The.Good.Dinosaur.2015.1080p.DTS.x264.One2loadup.com
Encoded date : UTC 2016-02-25 10:14:34
Writing application : mkvmerge v8.9.0 (‘Father Daughter’) 64bit
Writing library : libebml v1.3.3 + libmatroska v1.4.4

Video
ID : 1
Format : AVC
Format/Info : Advanced Video Codec
Format profile : [email protected]
Format settings, CABAC : Yes
Format settings, RefFrames : 5 frames
Codec ID : V_MPEG4/ISO/AVC
Duration : 1 h 33 min
Bit rate : 4 500 kb/s
Width : 1 920 pixels
Height : 808 pixels
Display aspect ratio : 2.40:1
Frame rate mode : Constant
Frame rate : 23.976 (24000/1001) FPS
Color space : YUV
Chroma subsampling : 4:2:0
Bit depth : 8 bits
Scan type : Progressive
Bits/(Pixel*Frame) : 0.121
Stream size : 2.90 GiB (78%)
Title : [MINI Super-HQ]_The.Good.Dinosaur.2015.1080p.DTS.x264.One2loadup.com
Writing library : x264 core 148 r2638 7599210
Encoding settings : cabac=1 / ref=5 / deblock=1:-1:-1 / analyse=0x3:0x133 / me=umh / subme=11 / psy=1 / psy_rd=1.00:0.15 / mixed_ref=1 / me_range=32 / chroma_me=1 / trellis=2 / 8x8dct=1 / cqm=0 / deadzone=21,11 / fast_pskip=0 / chroma_qp_offset=-3 / threads=12 / lookahead_threads=1 / sliced_threads=0 / nr=0 / decimate=1 / interlaced=0 / bluray_compat=0 / constrained_intra=0 / bframes=6 / b_pyramid=2 / b_adapt=2 / b_bias=0 / direct=3 / weightb=1 / open_gop=0 / weightp=2 / keyint=240 / keyint_min=23 / scenecut=40 / intra_refresh=0 / rc_lookahead=60 / rc=2pass / mbtree=1 / bitrate=4500 / ratetol=1.0 / qcomp=0.60 / qpmin=0 / qpmax=69 / qpstep=4 / cplxblur=20.0 / qblur=0.5 / ip_ratio=1.40 / aq=1:1.00
Language : English
Default : Yes
Forced : No

Audio #1
ID : 2
Format : AC-3
Format/Info : Audio Coding 3
Format settings, Endianness : Big
Codec ID : A_AC3
Duration : 1 h 33 min
Bit rate mode : Constant
Bit rate : 384 kb/s
Channel(s) : 6 channels
Channel positions : Front: L C R, Side: L R, LFE
Sampling rate : 48.0 kHz
Frame rate : 31.250 FPS (1536 SPF)
Bit depth : 16 bits
Compression mode : Lossy
Stream size : 258 MiB (7%)
Title : AC3 MASTER MIXED 5.1
Language : Thai
Service kind : Complete Main
Default : Yes
Forced : Yes

Audio #2
ID : 3
Format : DTS
Format/Info : Digital Theater Systems
Mode : 16
Format settings, Endianness : Big
Codec ID : A_DTS
Duration : 1 h 33 min
Bit rate mode : Constant
Bit rate : 755 kb/s
Channel(s) : 6 channels
Channel positions : Front: L C R, Side: L R, LFE
Sampling rate : 48.0 kHz
Frame rate : 93.750 FPS (512 SPF)
Bit depth : 24 bits
Compression mode : Lossy
Stream size : 506 MiB (13%)
Title : DTS
Language : English
Default : No
Forced : No

Text #1
ID : 4
Format : VobSub
Codec ID : S_VOBSUB
Codec ID/Info : Picture based subtitle format used on DVDs
Title : 1080P TSA
Language : Thai
Default : No
Forced : No

Text #2
ID : 5
Format : VobSub
Codec ID : S_VOBSUB
Codec ID/Info : Picture based subtitle format used on DVDs
Title : 1080P TSA YELLOW
Language : Thai
Default : No
Forced : No

Text #3
ID : 6
Format : VobSub
Codec ID : S_VOBSUB
Codec ID/Info : Picture based subtitle format used on DVDs
Title : 1080P TSA UNDER
Language : Thai
Default : No
Forced : No

Text #4
ID : 7
Format : VobSub
Codec ID : S_VOBSUB
Codec ID/Info : Picture based subtitle format used on DVDs
Title : 1080P
Language : Thai
Default : No
Forced : No

Text #5
ID : 8
Format : VobSub
Codec ID : S_VOBSUB
Codec ID/Info : Picture based subtitle format used on DVDs
Title : 480P
Language : Thai
Default : No
Forced : No

Text #6
ID : 9
Format : UTF-8
Codec ID : S_TEXT/UTF8
Codec ID/Info : UTF-8 Plain Text
Title : SRT OCR MASTER ITUNES
Language : Thai
Default : No
Forced : No

Text #7
ID : 10
Format : UTF-8
Codec ID : S_TEXT/UTF8
Codec ID/Info : UTF-8 Plain Text
Title : SRT
Language : English
Default : No
Forced : No

Text #8
ID : 11
Format : UTF-8
Codec ID : S_TEXT/UTF8
Codec ID/Info : UTF-8 Plain Text
Title : SDH SRT
Language : English
Default : No
Forced : No

Text #9
ID : 12
Format : PGS
Codec ID : S_HDMV/PGS
Codec ID/Info : Picture based subtitle format used on BDs/HD-DVDs
Title : TSA
Language : Thai
Default : Yes
Forced : Yes

Text #10
ID : 13
Format : PGS
Codec ID : S_HDMV/PGS
Codec ID/Info : Picture based subtitle format used on BDs/HD-DVDs
Title : TSA UNDER
Language : Thai
Default : No
Forced : No

Text #11
ID : 14
Format : PGS
Codec ID : S_HDMV/PGS
Codec ID/Info : Picture based subtitle format used on BDs/HD-DVDs
Title : [MINI Super-HQ]_The.Good.Dinosaur.2015.1080p.DTS.x264.One2loadup.com
Language : Thai
Default : No
Forced : No

Menu
00:00:00.000 : en:Chapter 1
00:03:38.009 : en:Chapter 2
00:06:16.459 : en:Chapter 3
00:08:14.160 : en:Chapter 4
00:12:12.649 : en:Chapter 5
00:14:33.956 : en:Chapter 6
00:17:42.395 : en:Chapter 7
00:21:10.644 : en:Chapter 8
00:22:58.168 : en:Chapter 9
00:26:41.100 : en:Chapter 10
00:29:02.658 : en:Chapter 11
00:33:10.363 : en:Chapter 12
00:35:28.668 : en:Chapter 13
00:38:14.501 : en:Chapter 14
00:41:08.841 : en:Chapter 15
00:45:42.990 : en:Chapter 16
00:47:47.948 : en:Chapter 17
00:51:48.314 : en:Chapter 18
00:55:47.010 : en:Chapter 19
01:00:22.994 : en:Chapter 20
01:03:59.044 : en:Chapter 21
01:05:27.257 : en:Chapter 22
01:07:11.819 : en:Chapter 23
01:11:06.471 : en:Chapter 24
01:13:43.377 : en:Chapter 25
01:16:01.474 : en:Chapter 26
01:19:08.535 : en:Chapter 27
01:23:56.865 : en:Chapter 28
01:26:01.114 : en:Chapter 29


PART01 |||| PART02 |||| PART03 |||| PART04

PART01 |||| PART02 |||| PART03 |||| PART04

PART01 |||| PART02 |||| PART03 |||| PART04

PART01 |||| PART02 |||| PART03 |||| PART04


Leave A Reply

Your email address will not be published.

%d bloggers like this: