[MINI Super-HQ] The Curse of La Llorona (2019) คำสาปมรณะจากหญิงร่ำไห้ [1080p] [พากย์ไทย 5.1 + เสียงอังกฤษ DTS] [บรรยายไทย + อังกฤษ] [เสียงไทย + ซับไทย] [OPENLOAD]

0

The Curse of La Llorona (The Curse of the Weeping Woman) (2019)

โหลดหนัง The Curse of La Llorona (The Curse of the Weeping Woman) (2019) คำสาปมรณะจากหญิงร่ำไห้

The Curse of La Llorona (2019) 1h 33min | Horror, Mystery, Thriller | 19 April 2019 (Canada) Summary: Ignoring the eerie warning of a troubled mother suspected of child endangerment, a social worker and her own small kids are soon drawn into a frightening supernatural realm.
Countries: USALanguages: English, Spanish

เรื่องย่อ The Curse of La Llorona (The Curse of the Weeping Woman) (2019) คำสาปมรณะจากหญิงร่ำไห้

เรื่องราว ลาโยโรนา หญิงร่ำไห้ วิญญาณร้าย เธอติดอยู่ในโชคชะตาอันเลวร้ายที่เกิดขึ้นจากน้ำมือของตนเองคำกล่าวขานเรื่องราวของเธอโด่งดังทั่วโลกมายาวนาน เมื่อยามมีชีวิต เธอกดลูกตัวเองจมน้ำจากความโกรธแค้นและกระโดดลงสู่สายน้ำอันปั่นป่วนขณะร่ำไห้อย่างเจ็บปวดยามนี้เธอร่ำไห้นิรันดรและหากใครที่ได้ยินเสียงเพรียกแห่งความตายยามค่ำคืนของเธอต้องพบจุดจบเธอคืบคลานในความมืดเรียกร้องหาเด็ก ๆ เพื่อนำมาแทนที่ลูกของตน ยิ่งเวลาผ่านไปนับศตวรรษ ความปรารถนาของเธอกลับยิ่งเพิ่มมากขึ้นรุนแรงยิ่งขึ้น และวิธีการของเธอก็น่ากลัวยิ่งขึ้นทุกที

ปี 1970 ที่ลอสแองเจลิส ลาโยโรนา แฝงกายในความมืด ติดตามเด็กชายที่ไม่สนใจฟังคำเตือนอันน่าขนลุกของนักสังคมสงเคราะห์สาวผู้เป็นมารดาที่คาดว่าลูกของตนกำลังอยู่ในอันตราย ไม่ช้าเธอและลูกของเธอก็ถูกดึงเข้าสู่ดินแดนเหนือธรรมชาติสุดสะพรึง ซึ่งเธอคิดว่าความหวังเพียงหนึ่งเดียวของพวกเธอที่จะรอดจากความแค้นของ La Llorona อาจเป็นนักบวชผู้ไม่แยแสโลกและฝึกฝนเวทมนตร์เพื่อรับมือปีศาจนั่นเอง!!!

Complete name : [MINI Super-HQ]_The.Curse.Of.La.Llorona.2019.1080p.BrRip.DTS.x264.One2loadup.com.mkv
Format : Matroska
Format version : Version 4
File size : 3.88 GiB
Duration : 1 h 33 min
Overall bit rate : 5 956 kb/s
Movie name : [MINI Super-HQ]_The.Curse.Of.La.Llorona.2019.1080p.BrRip.DTS.x264.One2loadup.com
Encoded date : UTC 2010-02-22 21:41:31
Writing application : mkvmerge v5.9.0 (‘On The Loose’) built on Dec 9 2012 15:37:01
Writing library : libebml v1.3.0 + libmatroska v1.4.0

Video
ID : 1
Format : AVC
Format/Info : Advanced Video Codec
Format profile : [email protected]
Format settings : CABAC / 4 Ref Frames
Format settings, CABAC : Yes
Format settings, ReFrames : 4 frames
Codec ID : V_MPEG4/ISO/AVC
Duration : 1 h 33 min
Bit rate : 4 650 kb/s
Width : 1 920 pixels
Height : 800 pixels
Display aspect ratio : 2.40:1
Frame rate mode : Constant
Frame rate : 23.976 (24000/1001) FPS
Color space : YUV
Chroma subsampling : 4:2:0
Bit depth : 8 bits
Scan type : Progressive
Bits/(Pixel*Frame) : 0.126
Stream size : 3.02 GiB (78%)
Title : [MINI Super-HQ]_The.Curse.Of.La.Llorona.2019.1080p.BrRip.DTS.x264.One2loadup.com
Writing library : x264 core 146 r2538 121396c
Encoding settings : cabac=1 / ref=5 / deblock=1:-3:-3 / analyse=0x3:0x133 / me=tesa / subme=11 / psy=1 / psy_rd=1.00:0.15 / mixed_ref=1 / me_range=48 / chroma_me=1 / trellis=2 / 8x8dct=1 / cqm=0 / deadzone=21,11 / fast_pskip=1 / chroma_qp_offset=-3 / threads=54 / lookahead_threads=4 / sliced_threads=0 / nr=0 / decimate=1 / interlaced=0 / bluray_compat=1 / constrained_intra=0 / bframes=3 / b_pyramid=1 / b_adapt=2 / b_bias=0 / direct=3 / weightb=1 / open_gop=0 / weightp=1 / keyint=250 / keyint_min=1 / scenecut=40 / intra_refresh=0 / rc_lookahead=60 / rc=2pass / mbtree=1 / bitrate=4650 / ratetol=1.0 / qcomp=0.60 / qpmin=0 / qpmax=69 / qpstep=4 / cplxblur=20.0 / qblur=0.5 / ip_ratio=1.40 / aq=1:1.30
Language : English
Default : Yes
Forced : No

Audio #1
ID : 2
Format : AC-3
Format/Info : Audio Coding 3
Commercial name : Dolby Digital
Codec ID : A_AC3
Duration : 1 h 33 min
Bit rate mode : Constant
Bit rate : 448 kb/s
Channel(s) : 6 channels
Channel layout : L R C LFE Ls Rs
Sampling rate : 48.0 kHz
Frame rate : 31.250 FPS (1536 SPF)
Bit depth : 16 bits
Compression mode : Lossy
Stream size : 299 MiB (8%)
Title : Thai BluRay Master
Language : Thai
Service kind : Complete Main
Default : Yes
Forced : Yes

Audio #2
ID : 3
Format : DTS
Format/Info : Digital Theater Systems
Codec ID : A_DTS
Duration : 1 h 33 min
Bit rate mode : Constant
Bit rate : 755 kb/s
Channel(s) : 6 channels
Channel layout : C L R Ls Rs LFE
Sampling rate : 48.0 kHz
Frame rate : 93.750 FPS (512 SPF)
Bit depth : 24 bits
Compression mode : Lossy
Stream size : 503 MiB (13%)
Title : English DTS
Language : English
Default : No
Forced : No

Text #1
ID : 4
Format : VobSub
Codec ID : S_VOBSUB
Codec ID/Info : Picture based subtitle format used on DVDs
Title : Thai 480p
Language : Thai
Default : No
Forced : No

Text #2
ID : 5
Format : VobSub
Codec ID : S_VOBSUB
Codec ID/Info : Picture based subtitle format used on DVDs
Title : Thai 720p
Language : Thai
Default : No
Forced : No

Text #3
ID : 6
Format : VobSub
Codec ID : S_VOBSUB
Codec ID/Info : Picture based subtitle format used on DVDs
Title : Thai 1080p Master
Language : Thai
Default : Yes
Forced : Yes

Text #4
ID : 7
Format : VobSub
Codec ID : S_VOBSUB
Codec ID/Info : Picture based subtitle format used on DVDs
Title : Thai 1080p Yellow
Language : Thai
Default : No
Forced : No

Text #5
ID : 8
Format : VobSub
Codec ID : S_VOBSUB
Codec ID/Info : Picture based subtitle format used on DVDs
Title : Thai 1080p BIG
Language : Thai
Default : No
Forced : No

Text #6
ID : 9
Format : VobSub
Codec ID : S_VOBSUB
Codec ID/Info : Picture based subtitle format used on DVDs
Title : Thai 1080p Out
Language : Thai
Default : No
Forced : No

Text #7
ID : 10
Format : VobSub
Codec ID : S_VOBSUB
Codec ID/Info : Picture based subtitle format used on DVDs
Title : Thai 1080p Out [BIG]
Language : Thai
Default : No
Forced : No

Text #8
ID : 11
Format : PGS
Codec ID : S_HDMV/PGS
Codec ID/Info : Picture based subtitle format used on BDs/HD-DVDs
Title : Thai PGS BluRay Master
Language : Thai
Default : No
Forced : No

Text #9
ID : 12
Format : PGS
Codec ID : S_HDMV/PGS
Codec ID/Info : Picture based subtitle format used on BDs/HD-DVDs
Title : Thai PGS Yellow
Language : Thai
Default : No
Forced : No

Text #10
ID : 13
Format : PGS
Codec ID : S_HDMV/PGS
Codec ID/Info : Picture based subtitle format used on BDs/HD-DVDs
Title : Thai PGS Out
Language : Thai
Default : No
Forced : No

Text #11
ID : 14
Format : PGS
Codec ID : S_HDMV/PGS
Codec ID/Info : Picture based subtitle format used on BDs/HD-DVDs
Title : English
Language : English
Default : No
Forced : No

Menu
00:00:00.000 : en:Chapter 01
00:09:24.355 : en:Chapter 02
00:18:21.267 : en:Chapter 03
00:28:09.104 : en:Chapter 04
00:38:14.209 : en:Chapter 05
00:48:09.595 : en:Chapter 06
00:58:07.317 : en:Chapter 07
01:09:04.557 : en:Chapter 08
01:18:15.149 : en:Chapter 09
01:26:30.727 : en:Chapter 10

DOWNLOAD


PART01 |||| PART02 |||| PART03 |||| PART04

PART01 |||| PART02 |||| PART03 |||| PART04

PART01 |||| PART02 |||| PART03 |||| PART04

PART01 |||| PART02 |||| PART03 |||| PART04


Leave A Reply

Your email address will not be published.

%d bloggers like this: