[MINI Super-HQ] The Chronicles of Narnia: The Voyage of the Dawn Treader (2010) อภินิหารตำนานแห่งนาร์เนีย ภาค 3 [1080p] [พากย์ไทย 5.1 + เสียงอังกฤษ DTS] [บรรยายไทย + อังกฤษ] [เสียงไทย + ซับไทย] [OPENLOAD]

1

The Chronicles of Narnia: The Voyage of the Dawn Treader (2010) อภินิหารตำนานแห่งนาร์เนีย ภาค 3

โหลดหนัง The Chronicles of Narnia: The Voyage of the Dawn Treader (2010) อภินิหารตำนานแห่งนาร์เนีย ภาค 3

เรื่องย่อ The Chronicles of Narnia: The Voyage of the Dawn Treader (2010) อภินิหารตำนานแห่งนาร์เนีย ภาค 3

อภินิหารตำนานแห่งนาร์เนีย: ผจญภัยโพ้นทะเล มหกรรมภาพยนตร์สำหรับฤดูกาลวันหยุด เอ็ดมันด์ และลูซี่ พีเวนซี่ พร้อมกับยูซตาสลูกพี่ลูกน้องของพวกเขาถูกดูดกลืนเข้าไปยังภาพวาด ถูกส่งกลับไปยังนาร์เนียและเรือดอว์น เทรดเดอร์อันงดงาม พวกเขาร่วมมือกับกษัตริย์แคสเปี้ยน และหนูนักรบผู้มีนามว่า รีปพิชีป เพื่อภารกิจที่กุมชะตาแห่งนาร์เนียเอาไว้ เหล่านักเดินทางผู้กล้าผ่านพ้นสิ่งล่อตาล่อใจอันยิ่งใหญ่ เมื่อพวกเขาเดินทางไปยังเกาะลึกลับต่าง ๆ มีการเผชิญหน้าอย่างเอาเป็นเอาตายกับสิ่งมีชีวิตแห่งเวทมนตร์ และเหล่าศัตรูผู้ชั่วร้าย รวมไปถึงการกลับมารวมตัวกับเพื่อนและผู้คุ้มกันของพวกเขาอย่าง ราชสีห์ผู้ยิ่งใหญ่ อัสลาน

Complete name : [MINI Super-HQ]_The.Chronicles.of.Narnia.The.Voyage.of.the.Dawn.Treader.2010.1080p.BrRip.x264.AC3.One2loadup.com.mkv
Format : Matroska
Format version : Version 4
File size : 7.86 GiB
Duration : 1 h 52 min
Overall bit rate : 9 991 kb/s
Movie name : [MINI Super-HQ]_The.Chronicles.of.Narnia.The.Voyage.of.the.Dawn.Treader.2010.1080p.x264.AC3.One2loadup.com
Encoded date : UTC 2016-10-01 01:54:49 / UTC 2016-09-30T13:11:55Z
Writing application : mkvmerge v8.3.0 (‘Over the Horizon’) 64bit
Writing library : libebml v1.3.1 + libmatroska v1.4.2 / Lavf55.12.0

Video
ID : 1
Format : AVC
Format/Info : Advanced Video Codec
Format profile : [email protected]
Format settings : CABAC / 4 Ref Frames
Format settings, CABAC : Yes
Format settings, ReFrames : 4 frames
Codec ID : V_MPEG4/ISO/AVC
Duration : 1 h 52 min
Bit rate : 7 835 kb/s
Width : 1 920 pixels
Height : 1 080 pixels
Display aspect ratio : 16:9
Frame rate mode : Constant
Frame rate : 23.976 (24000/1001) FPS
Color space : YUV
Chroma subsampling : 4:2:0
Bit depth : 8 bits
Scan type : Progressive
Bits/(Pixel*Frame) : 0.158
Stream size : 6.17 GiB (78%)
Title : [MINI Super-HQ]_The.Chronicles.of.Narnia.The.Voyage.of.the.Dawn.Treader.2010.1080p.x264.AC3.One2loadup.com
Writing library : x264 core 142 r2479 dd79a61
Encoding settings : cabac=1 / ref=1 / deblock=1:0:0 / analyse=0x1:0x111 / me=hex / subme=2 / psy=1 / psy_rd=1.00:0.00 / mixed_ref=0 / me_range=16 / chroma_me=1 / trellis=0 / 8x8dct=0 / cqm=0 / deadzone=21,11 / fast_pskip=1 / chroma_qp_offset=0 / threads=6 / lookahead_threads=2 / sliced_threads=0 / nr=0 / decimate=1 / interlaced=0 / bluray_compat=0 / constrained_intra=0 / bframes=3 / b_pyramid=2 / b_adapt=1 / b_bias=0 / direct=1 / weightb=1 / open_gop=0 / weightp=1 / keyint=240 / keyint_min=24 / scenecut=40 / intra_refresh=0 / rc_lookahead=10 / rc=crf / mbtree=1 / crf=20.0 / qcomp=0.60 / qpmin=0 / qpmax=69 / qpstep=4 / vbv_maxrate=20000 / vbv_bufsize=25000 / crf_max=0.0 / nal_hrd=none / filler=0 / ip_ratio=1.40 / aq=1:1.00
Language : Thai
Default : Yes
Forced : Yes
Color range : Limited
Color primaries : BT.709
Transfer characteristics : BT.709
Matrix coefficients : BT.709

Audio #1
ID : 2
Format : DTS
Format/Info : Digital Theater Systems
Codec ID : A_DTS
Duration : 1 h 52 min
Bit rate mode : Constant
Bit rate : 1 509 kb/s
Channel(s) : 6 channels
Channel layout : C L R Ls Rs LFE
Sampling rate : 48.0 kHz
Frame rate : 93.750 FPS (512 SPF)
Bit depth : 24 bits
Compression mode : Lossy
Stream size : 1.19 GiB (15%)
Title : Surround
Language : English
Default : No
Forced : Yes

Audio #2
ID : 3
Format : AC-3
Format/Info : Audio Coding 3
Commercial name : Dolby Digital
Codec ID : A_AC3
Duration : 1 h 52 min
Bit rate mode : Constant
Bit rate : 448 kb/s
Channel(s) : 6 channels
Channel layout : L R C LFE Ls Rs
Sampling rate : 48.0 kHz
Frame rate : 31.250 FPS (1536 SPF)
Bit depth : 16 bits
Compression mode : Lossy
Stream size : 361 MiB (4%)
Title : Surround
Language : Thai
Service kind : Complete Main
Default : Yes
Forced : Yes

Text #1
ID : 4
Format : PGS
Muxing mode : zlib
Codec ID : S_HDMV/PGS
Codec ID/Info : Picture based subtitle format used on BDs/HD-DVDs
Language : English
Default : No
Forced : Yes

Text #2
ID : 5
Format : PGS
Muxing mode : zlib
Codec ID : S_HDMV/PGS
Codec ID/Info : Picture based subtitle format used on BDs/HD-DVDs
Language : Thai
Default : No
Forced : Yes

Text #3
ID : 6
Format : PGS
Muxing mode : zlib
Codec ID : S_HDMV/PGS
Codec ID/Info : Picture based subtitle format used on BDs/HD-DVDs
Language : Thai
Default : Yes
Forced : Yes

Menu
00:00:00.000 : :Chapter 1
00:04:59.566 : :Chapter 2
00:09:59.282 : :Chapter 3
00:14:59.874 : :Chapter 4
00:19:59.924 : :Chapter 5
00:25:00.099 : :Chapter 6
00:29:59.815 : :Chapter 7
00:34:59.948 : :Chapter 8
00:39:59.873 : :Chapter 9
00:44:59.380 : :Chapter 10
00:49:59.514 : :Chapter 11
00:54:59.355 : :Chapter 12
00:59:59.905 : :Chapter 13
01:04:59.579 : :Chapter 14
01:09:59.963 : :Chapter 15
01:14:59.512 : :Chapter 16
01:20:00.062 : :Chapter 17
01:24:59.987 : :Chapter 18
01:29:59.328 : :Chapter 19
01:34:59.294 : :Chapter 20
01:40:00.053 : :Chapter 21
01:44:59.435 : :Chapter 22
01:49:59.902 : :Chapter 23

DOWNLOAD


PART01 |||| PART02 |||| PART03 |||| PART04 |||| PART05

PART01 |||| PART02 |||| PART03 |||| PART04 |||| PART05

PART01 |||| PART02 |||| PART03 |||| PART04 |||| PART05

PART01 |||| PART02 |||| PART03 |||| PART04 |||| PART05


1 Comment
  1. Boydm Lion
    Boydm Lion says

    ขอบคุณครับบ

Leave A Reply

Your email address will not be published.

%d bloggers like this: