[MINI Super-HQ] The Chronicles of Narnia: Prince Caspian (2008) อภินิหารตำนานแห่งนาร์เนีย ภาค 2 [1080p] [พากย์ไทย 5.1 + เสียงอังกฤษ DTS] [บรรยายไทย + อังกฤษ] [เสียงไทย + ซับไทย] [OPENLOAD]

1

The Chronicles of Narnia: Prince Caspian (2008) อภินิหารตำนานแห่งนาร์เนีย ภาค 2

โหลดหนัง The Chronicles of Narnia: Prince Caspian (2008) อภินิหารตำนานแห่งนาร์เนีย ภาค 2

เรื่องย่อ The Chronicles of Narnia: Prince Caspian (2008) อภินิหารตำนานแห่งนาร์เนีย ภาค 2

หนึ่งปีหลังจากจากการผจญภัยกับ ราชสีห์, แม่มด กับตู้พิศวง อดีตกษัตริย์ และราชินีแห่งนาร์เนียพบว่าตัวเองกลับไปอยู่ในดินแดนอันไกลโพ้นนั้นอีกครั้ง เพียงเพื่อจะได้ค้นพบว่า เวลาในนาร์เนียได้ผ่านไปแล้วกว่า 1,300 ปี ในช่วงที่พวกเขาไม่อยู่นั้น ยุคทองของนาร์เนียได้เลือนหายไปหลงเหลือเป็นเพียงตำนานเล่าขาน สัตว์พูดได้และสิ่งมีชีวิตในเทพนิยายเป็นเพียงแค่ตำนานพื้นบ้านสำหรับพวกเทลมารีน เผ่าพันธุ์มนุษย์ที่นำโดยลอร์ดมิราซ ผู้ไร้ปรานี ไม่มีใครพบเห็นราชสีห์อัสลานมาเป็นพันปีแล้ว

Complete name : [MINI Super-HQ]_The.Chronicles.of.Narnia.2.Prince.Caspian.2008.1080p.AC3.x264.One2loadup.com.mkv
Format : Matroska
Format version : Version 4
File size : 8.20 GiB
Duration : 2 h 29 min
Overall bit rate : 7 826 kb/s
Movie name : [MINI Super-HQ]_The.Chronicles.of.Narnia.2.Prince.Caspian.2008.1080p.AC3.x264.One2loadup.com
Encoded date : UTC 2016-10-01 01:48:51 / UTC 2016-09-30T12:00:51Z
Writing application : mkvmerge v8.3.0 (‘Over the Horizon’) 64bit
Writing library : libebml v1.3.1 + libmatroska v1.4.2 / Lavf55.12.0

Video
ID : 1
Format : AVC
Format/Info : Advanced Video Codec
Format profile : [email protected]
Format settings : CABAC / 4 Ref Frames
Format settings, CABAC : Yes
Format settings, ReFrames : 4 frames
Codec ID : V_MPEG4/ISO/AVC
Duration : 2 h 29 min
Bit rate : 5 650 kb/s
Width : 1 920 pixels
Height : 800 pixels
Display aspect ratio : 2.40:1
Original display aspect rat : 2.40:1
Frame rate mode : Constant
Frame rate : 23.976 (24000/1001) FPS
Color space : YUV
Chroma subsampling : 4:2:0
Bit depth : 8 bits
Scan type : Progressive
Bits/(Pixel*Frame) : 0.153
Stream size : 5.92 GiB (72%)
Title : [MINI Super-HQ]_The.Chronicles.of.Narnia.2.Prince.Caspian.2008.1080p.AC3.x264.One2loadup.com
Writing library : x264 core 142 r2479 dd79a61
Encoding settings : cabac=1 / ref=1 / deblock=1:0:0 / analyse=0x1:0x111 / me=hex / subme=2 / psy=1 / psy_rd=1.00:0.00 / mixed_ref=0 / me_range=16 / chroma_me=1 / trellis=0 / 8x8dct=0 / cqm=0 / deadzone=21,11 / fast_pskip=1 / chroma_qp_offset=0 / threads=6 / lookahead_threads=2 / sliced_threads=0 / nr=0 / decimate=1 / interlaced=0 / bluray_compat=0 / constrained_intra=0 / bframes=3 / b_pyramid=2 / b_adapt=1 / b_bias=0 / direct=1 / weightb=1 / open_gop=0 / weightp=1 / keyint=240 / keyint_min=24 / scenecut=40 / intra_refresh=0 / rc_lookahead=10 / rc=crf / mbtree=1 / crf=20.0 / qcomp=0.60 / qpmin=0 / qpmax=69 / qpstep=4 / vbv_maxrate=20000 / vbv_bufsize=25000 / crf_max=0.0 / nal_hrd=none / filler=0 / ip_ratio=1.40 / aq=1:1.00
Language : Thai
Default : Yes
Forced : Yes
Color range : Limited
Color primaries : BT.709
Transfer characteristics : BT.709
Matrix coefficients : BT.709

Audio #1
ID : 2
Format : DTS
Format/Info : Digital Theater Systems
Codec ID : A_DTS
Duration : 2 h 29 min
Bit rate mode : Constant
Bit rate : 1 509 kb/s
Channel(s) : 6 channels
Channel layout : C L R Ls Rs LFE
Sampling rate : 48.0 kHz
Frame rate : 93.750 FPS (512 SPF)
Bit depth : 24 bits
Compression mode : Lossy
Stream size : 1.58 GiB (19%)
Title : Surround
Language : English
Default : No
Forced : Yes

Audio #2
ID : 3
Format : AC-3
Format/Info : Audio Coding 3
Commercial name : Dolby Digital
Codec ID : A_AC3
Duration : 2 h 29 min
Bit rate mode : Constant
Bit rate : 640 kb/s
Channel(s) : 6 channels
Channel layout : L R C LFE Ls Rs
Sampling rate : 48.0 kHz
Frame rate : 31.250 FPS (1536 SPF)
Bit depth : 16 bits
Compression mode : Lossy
Stream size : 687 MiB (8%)
Title : Surround
Language : Thai
Service kind : Complete Main
Default : Yes
Forced : Yes

Text #1
ID : 4
Format : PGS
Muxing mode : zlib
Codec ID : S_HDMV/PGS
Codec ID/Info : Picture based subtitle format used on BDs/HD-DVDs
Duration : 2 h 16 min
Bit rate : 5 957 b/s
Count of elements : 1878
Stream size : 5.81 MiB (0%)
Language : Thai
Default : No
Forced : Yes

Text #2
ID : 5
Format : PGS
Muxing mode : zlib
Codec ID : S_HDMV/PGS
Codec ID/Info : Picture based subtitle format used on BDs/HD-DVDs
Duration : 51 min 22 s
Bit rate : 97 b/s
Count of elements : 12
Stream size : 36.6 KiB (0%)
Language : Thai
Default : No
Forced : Yes

Text #3
ID : 6
Format : PGS
Muxing mode : zlib
Codec ID : S_HDMV/PGS
Codec ID/Info : Picture based subtitle format used on BDs/HD-DVDs
Duration : 2 h 18 min
Bit rate : 20.1 kb/s
Count of elements : 4416
Stream size : 19.9 MiB (0%)
Language : Thai
Default : Yes
Forced : Yes

Menu
00:00:00.000 : :Chapter 1
00:08:32.612 : :Chapter 2
00:15:51.384 : :Chapter 3
00:19:54.668 : :Chapter 4
00:27:04.514 : :Chapter 5
00:32:57.576 : :Chapter 6
00:43:09.020 : :Chapter 7
00:46:19.877 : :Chapter 8
00:56:13.136 : :Chapter 9
01:01:00.298 : :Chapter 10
01:04:50.945 : :Chapter 11
01:21:39.286 : :Chapter 12
01:24:03.597 : :Chapter 13
01:25:20.215 : :Chapter 14
01:33:54.979 : :Chapter 15
01:39:12.713 : :Chapter 16
01:51:48.010 : :Chapter 17
01:58:47.053 : :Chapter 18
02:03:54.444 : :Chapter 19
02:06:27.847 : :Chapter 20
02:11:15.551 : :Chapter 21
02:17:46.483 : :Chapter 22

DOWNLOAD


PART01 |||| PART02 |||| PART03 |||| PART04 |||| PART05

PART01 |||| PART02 |||| PART03 |||| PART04 |||| PART05

PART01 |||| PART02 |||| PART03 |||| PART04 |||| PART05

PART01 |||| PART02 |||| PART03 |||| PART04 |||| PART05


1 Comment
  1. Boydm Lion
    Boydm Lion says

    สุดยอดเลยย

Leave A Reply

Your email address will not be published.

%d bloggers like this: