เว็บโหลดหนัง HD MINI-HD SUPER-HQ Full-HD 1080p One2up VIP Mekafile Master Zoom ซูม หนังใหม่ ออนไลน์ มาสเตอร์ ไทย จีน ฝรั่ง การ์ตูน

[MINI Super-HQ] The Angry Birds Movie (2016) แอ็งกรี เบิร์ดส เดอะ มูวี่ [1080p] [พากย์ไทย 5.1 + อังกฤษ DTS] [บรรยายไทย + อังกฤษ] [เสียงไทย + ซับไทย] [ONE2UP]

0

 The Angry Birds Movie (2016) แอ็งกรี เบิร์ดส เดอะ มูวี่

โหลดหนัง  The Angry Birds Movie (2016) แอ็งกรี เบิร์ดส เดอะ มูวี่

เรื่องย่อ The Angry Birds Movie (2016) แอ็งกรี เบิร์ดส เดอะ มูวี่

สำหรับหนังภาพยนตร์เรื่อง The Angry Birds Movie หรือชื่อไทยว่า แอ็งกรี เบิร์ดส เดอะ มูวี่ เราจะมาดูกันว่าเร้ด, ชัค, บอมบ์ จะฝึกควบคุมอารมณ์ของตนเองได้สำเร็จหรือไม่ และการมาเยือนของเจ้าหมูตัวสีเขียวลีโอนาร์ด จะสร้างความป่วนอะไรให้กับเมืองสวรรค์ของพวกนกเหล่าน ี้เรื่องราวความวุ่นวายทั้งหมดเริ่มต้นที่เกาะสวรรค์ ที่ประชากรเกือบทั้งหมดเป็นนกที่ไม่สามารถบินได้ และเมื่อพวกเขาถูกหมูสีเขียวปริศนาเดินทางมาเยือนด้ว ยจุดประสงค์บางอย่าง ทำให้ เรด นกขี้โมโห, ชัค ผู้ว่องไว และบอม นกดำจอมระเบิด ต้องหาคำตอบให้ได้ว่าหมูเขียวต้องการอะไร โดยแอนิเมชั่นเรื่องนี้จะตอบคำถามว่า ความขัดแย้งระหว่างนกและหมูเกิดขึ้นได้อย่างไร

Complete name : [MINI Super-HQ]_The.Angry.Birds.Movie.2016.1080p.x264.One2loadup.com.mkv
Format : Matroska
Format version : Version 4 / Version 2
File size : 3.85 GiB
Duration : 1 h 37 min
Overall bit rate : 5 676 kb/s
Movie name : [MINI Super-HQ]_The.Angry.Birds.Movie.2016.1080p.x264.One2loadup.com
Encoded date : UTC 2010-02-22 21:41:31
Writing application : mkvmerge v5.9.0 (‘On The Loose’) built on Dec 9 2012 15:37:01
Writing library : libebml v1.3.0 + libmatroska v1.4.0

Video
ID : 1
Format : AVC
Format/Info : Advanced Video Codec
Format profile : [email protected]
Format settings, CABAC : Yes
Format settings, RefFrames : 4 frames
Codec ID : V_MPEG4/ISO/AVC
Duration : 1 h 37 min
Bit rate : 4 224 kb/s
Width : 1 920 pixels
Height : 1 036 pixels
Display aspect ratio : 1.85:1
Frame rate mode : Constant
Frame rate : 23.976 FPS
Color space : YUV
Chroma subsampling : 4:2:0
Bit depth : 8 bits
Scan type : Progressive
Bits/(Pixel*Frame) : 0.089
Stream size : 2.83 GiB (73%)
Title : [MINI Super-HQ]_The.Angry.Birds.Movie.2016.1080p.x264.One2loadup.com
Writing library : x264 core 130 r2273 b3065e6
Encoding settings : cabac=1 / ref=3 / deblock=1:0:0 / analyse=0x3:0x113 / me=umh / subme=11 / psy=1 / psy_rd=1.00:0.00 / mixed_ref=1 / me_range=48 / chroma_me=1 / trellis=2 / 8x8dct=1 / cqm=0 / deadzone=21,11 / fast_pskip=1 / chroma_qp_offset=-2 / threads=10 / lookahead_threads=1 / sliced_threads=0 / nr=0 / decimate=1 / interlaced=0 / bluray_compat=0 / constrained_intra=0 / bframes=3 / b_pyramid=2 / b_adapt=2 / b_bias=0 / direct=1 / weightb=1 / open_gop=0 / weightp=2 / keyint=240 / keyint_min=24 / scenecut=40 / intra_refresh=0 / rc_lookahead=40 / rc=2pass / mbtree=1 / bitrate=4224 / ratetol=1.0 / qcomp=0.60 / qpmin=0 / qpmax=69 / qpstep=4 / cplxblur=20.0 / qblur=0.5 / ip_ratio=1.40 / aq=1:1.00
Language : English
Default : Yes
Forced : No
Color range : Limited
Color primaries : BT.709
Transfer characteristics : BT.709
Matrix coefficients : BT.709

Audio #1
ID : 2
Format : AC-3
Format/Info : Audio Coding 3
Format settings, Endianness : Big
Codec ID : A_AC3
Duration : 1 h 37 min
Bit rate mode : Constant
Bit rate : 640 kb/s
Channel(s) : 6 channels
Channel positions : Front: L C R, Side: L R, LFE
Sampling rate : 48.0 kHz
Frame rate : 31.250 FPS (1536 SPF)
Bit depth : 16 bits
Compression mode : Lossy
Stream size : 445 MiB (11%)
Title : Thai BluRay Master
Language : Thai
Service kind : Complete Main
Default : Yes
Forced : Yes

Audio #2
ID : 3
Format : DTS
Format/Info : Digital Theater Systems
Mode : 16
Format settings, Endianness : Big
Codec ID : A_DTS
Duration : 1 h 37 min
Bit rate mode : Constant
Bit rate : 755 kb/s
Channel(s) : 6 channels
Channel positions : Front: L C R, Side: L R, LFE
Sampling rate : 48.0 kHz
Frame rate : 93.750 FPS (512 SPF)
Bit depth : 24 bits
Compression mode : Lossy
Stream size : 525 MiB (13%)
Title : English DTS
Language : English
Default : No
Forced : No

Text #1
ID : 4
Format : VobSub
Codec ID : S_VOBSUB
Codec ID/Info : Picture based subtitle format used on DVDs
Title : Thai 480p
Language : Thai
Default : No
Forced : No

 

VIP โหลดไม่ได้แจ้งที่แชททางขวามือเลยจ้า


PART01 |||| PART02 |||| PART03 |||| PART04

PART01 |||| PART02 |||| PART03 |||| PART04

PART01 |||| PART02 |||| PART03 |||| PART04

PART01 |||| PART02 |||| PART03 |||| PART04


Leave A Reply

Your email address will not be published.

%d bloggers like this: