[MINI Super-HQ] Sword Art Online: The Movie – Ordinal Scale (2017) ซอร์ต อาร์ต ออนไลน์ เดอะ มูฟวี่ ออร์ดินอล สเกล [1080p] [พากย์ไทย 5.1 + เสียงญี่ปุ่น DTS] [บรรยายไทย + อังกฤษ] [เสียงไทย + ซับไทย] [OPENLOAD]

1

Sword Art Online: The Movie - Ordinal Scale (2017)

โหลดหนัง Sword Art Online: The Movie – Ordinal Scale (2017) ซอร์ต อาร์ต ออนไลน์ เดอะ มูฟวี่ ออร์ดินอล สเกล

Gekijo-ban Sword Art Online: Ordinal Scale (2017) 1h 59min | Animation, Action, Adventure | 18 February 2017 (Japan) Summary: Kirito uncovers a conspiracy within Ordinal Scale, a popular VR game developed for a new system called The Augma.
Countries: JapanLanguages: Japanese

เรื่องย่อ Sword Art Online: The Movie – Ordinal Scale (2017) ซอร์ต อาร์ต ออนไลน์ เดอะ มูฟวี่ ออร์ดินอล สเกล

เรื่องราวในอนิเมชั่นฉบับหนังโรงเป็นภาคต่อมาจากเนื้อหาของ Sword Art Online ทั้งสองภาคแรกโดยในภาคนี้ได้กล่าวถึงสังคมที่ผู้คนได้มีการใช้งานระบบ Visual Reality เพื่อการสร้างความบันเทิงในชีวิตจริงๆ จนเป็นกิจวัตร
จนทำให้มีการพัฒนาเกมออนไลน์ที่สามารถเล่นได้โดยไม่ต ้องพึ่งพา PC ส่วนตัวอย่าง “Ordinal Scale” ซึ่งเป็นเกมแนว ARMMO RPG (Augmented Reality Multi Massive Online RPG) ที่ต้องใช้อุปกรณ์คล้ายกับบลูทูธในการเข้าเล่นอย่าง Augma ในการเข้าเล่น!!!

Complete name : [MINI Super-HQ]_Sword.Art.Online.Ordinal.Scale.2017.1080p.BrRip.DTS.x264.One2loadup.com.mkv
Format : Matroska
Format version : Version 4
File size : 3.95 GiB
Duration : 2 h 0 min
Overall bit rate : 4 709 kb/s
Movie name : [MINI Super-HQ]_Sword.Art.Online.Ordinal.Scale.2017.1080p.BrRip.DTS.x264.One2loadup.com
Encoded date : UTC 2010-02-22 21:41:31
Writing application : mkvmerge v5.9.0 (‘On The Loose’) built on Dec 9 2012 15:37:01
Writing library : libebml v1.3.0 + libmatroska v1.4.0

Video
ID : 1
Format : AVC
Format/Info : Advanced Video Codec
Format profile : [email protected]
Format settings : CABAC / 4 Ref Frames
Format settings, CABAC : Yes
Format settings, ReFrames : 4 frames
Codec ID : V_MPEG4/ISO/AVC
Duration : 2 h 0 min
Bit rate : 3 334 kb/s
Width : 1 920 pixels
Height : 1 080 pixels
Display aspect ratio : 16:9
Frame rate mode : Constant
Frame rate : 23.976 (24000/1001) FPS
Color space : YUV
Chroma subsampling : 4:2:0
Bit depth : 8 bits
Scan type : Progressive
Bits/(Pixel*Frame) : 0.067
Stream size : 2.87 GiB (72%)
Title : [MINI Super-HQ]_Sword.Art.Online.Ordinal.Scale.2017.1080p.BrRip.DTS.x264.One2loadup.com
Writing library : x264 core 130 r2273 b3065e6
Encoding settings : cabac=1 / ref=3 / deblock=1:0:0 / analyse=0x3:0x113 / me=umh / subme=11 / psy=1 / psy_rd=1.00:0.00 / mixed_ref=1 / me_range=48 / chroma_me=1 / trellis=2 / 8x8dct=1 / cqm=0 / deadzone=21,11 / fast_pskip=1 / chroma_qp_offset=-2 / threads=10 / lookahead_threads=1 / sliced_threads=0 / nr=0 / decimate=1 / interlaced=0 / bluray_compat=0 / constrained_intra=0 / bframes=3 / b_pyramid=2 / b_adapt=1 / b_bias=0 / direct=1 / weightb=1 / open_gop=0 / weightp=2 / keyint=240 / keyint_min=24 / scenecut=40 / intra_refresh=0 / rc_lookahead=40 / rc=2pass / mbtree=1 / bitrate=3334 / ratetol=1.0 / qcomp=0.60 / qpmin=0 / qpmax=69 / qpstep=4 / cplxblur=20.0 / qblur=0.5 / ip_ratio=1.40 / aq=1:1.00
Language : Japanese
Default : Yes
Forced : No
Color range : Limited
Color primaries : BT.709
Transfer characteristics : BT.709
Matrix coefficients : BT.709

Audio #1
ID : 2
Format : AC-3
Format/Info : Audio Coding 3
Commercial name : Dolby Digital
Codec ID : A_AC3
Duration : 2 h 0 min
Bit rate mode : Constant
Bit rate : 448 kb/s
Channel(s) : 6 channels
Channel layout : L R C LFE Ls Rs
Sampling rate : 48.0 kHz
Frame rate : 31.250 FPS (1536 SPF)
Bit depth : 16 bits
Compression mode : Lossy
Stream size : 385 MiB (10%)
Title : Thai DVD Master
Language : Thai
Service kind : Complete Main
Default : Yes
Forced : Yes

Audio #2
ID : 3
Format : DTS
Format/Info : Digital Theater Systems
Codec ID : A_DTS
Duration : 2 h 0 min
Bit rate mode : Constant
Bit rate : 755 kb/s
Channel(s) : 6 channels
Channel layout : C L R Ls Rs LFE
Sampling rate : 48.0 kHz
Frame rate : 93.750 FPS (512 SPF)
Bit depth : 24 bits
Compression mode : Lossy
Stream size : 649 MiB (16%)
Title : Japanese DTS
Language : Japanese
Default : No
Forced : No

Text #1
ID : 4
Format : VobSub
Codec ID : S_VOBSUB
Codec ID/Info : Picture based subtitle format used on DVDs
Title : Thai 480p From DVD Master
Language : Thai
Default : No
Forced : No

Text #2
ID : 5
Format : VobSub
Codec ID : S_VOBSUB
Codec ID/Info : Picture based subtitle format used on DVDs
Title : Thai 720p
Language : Thai
Default : No
Forced : No

Text #3
ID : 6
Format : VobSub
Codec ID : S_VOBSUB
Codec ID/Info : Picture based subtitle format used on DVDs
Title : Thai 1080p
Language : Thai
Default : Yes
Forced : Yes

Text #4
ID : 7
Format : VobSub
Codec ID : S_VOBSUB
Codec ID/Info : Picture based subtitle format used on DVDs
Title : Thai 1080p Yellow
Language : Thai
Default : No
Forced : No

Text #5
ID : 8
Format : VobSub
Codec ID : S_VOBSUB
Codec ID/Info : Picture based subtitle format used on DVDs
Title : Thai 1080p BIG
Language : Thai
Default : No
Forced : No

Text #6
ID : 9
Format : PGS
Codec ID : S_HDMV/PGS
Codec ID/Info : Picture based subtitle format used on BDs/HD-DVDs
Title : Thai PGS
Language : Thai
Default : No
Forced : No

Text #7
ID : 10
Format : PGS
Codec ID : S_HDMV/PGS
Codec ID/Info : Picture based subtitle format used on BDs/HD-DVDs
Title : Thai PGS Yellow
Language : Thai
Default : No
Forced : No

Text #8
ID : 11
Format : PGS
Codec ID : S_HDMV/PGS
Codec ID/Info : Picture based subtitle format used on BDs/HD-DVDs
Title : English
Language : English
Default : No
Forced : No

Menu
00:00:00.000 : en:Chapter 1
00:04:06.246 : en:Chapter 2
00:11:04.664 : en:Chapter 3
00:19:37.301 : en:Chapter 4
00:25:59.308 : en:Chapter 5
00:32:03.213 : en:Chapter 6
00:38:33.853 : en:Chapter 7
00:42:36.888 : en:Chapter 8
00:45:20.051 : en:Chapter 9
00:51:59.992 : en:Chapter 10
00:55:47.344 : en:Chapter 11
01:02:52.519 : en:Chapter 12
01:09:04.724 : en:Chapter 13
01:19:41.568 : en:Chapter 14
01:23:58.367 : en:Chapter 15
01:26:41.196 : en:Chapter 16
01:33:49.666 : en:Chapter 17
01:39:30.047 : en:Chapter 18
01:46:47.401 : en:Chapter 19
01:50:46.932 : en:Chapter 20
01:54:33.867 : en:Chapter 21
01:59:13.771 : en:Chapter 22

DOWNLOAD


PART01 |||| PART02 |||| PART03 |||| PART04

PART01 |||| PART02 |||| PART03 |||| PART04

PART01 |||| PART02 |||| PART03 |||| PART04

PART01 |||| PART02 |||| PART03 |||| PART04


1 Comment
  1. Kittithep Jeanwitayakul
    Kittithep Jeanwitayakul says

    ขอบคุณครับ

Leave A Reply

Your email address will not be published.

%d bloggers like this: