โหลดหนัง HD MINI-HD SUPER-HQ Full-HD 1080p VIP Master Zoom ซูม หนังใหม่ ออนไลน์ มาสเตอร์ ไทย จีน ฝรั่ง การ์ตูน

[MINI Super-HQ] Star Trek: Into Darkness (2013) สตาร์ เทรค: ทะยานสู่ห้วงมืด 2 [1080p] [พากย์ไทย 5.1 + เสียงอังกฤษ 5.1] [บรรยายไทย + อังกฤษ] [เสียงไทย + ซับไทย] [OPENLOAD]

โหลดหนัง Star Trek: Into Darkness (2013) สตาร์ เทรค: ทะยานสู่ห้วงมืด

เรื่องย่อ Star Trek: Into Darkness (2013) สตาร์ เทรค: ทะยานสู่ห้วงมืด

ภาพยนตร์บล็อคบัสเตอร์ เรื่องเยี่ยมของปีที่ไม่มีอะไรเปรียบได้กับคำว่า “น่าตื่นตาตื่นใจ” (ปีเตอร์ ทราวเวอร์ส, Rolling Stone)เมื่อวายร้ายจอมวางแผนผู้เหี้ยมโหดที่รู้จักกันในนาม ข่าน (เบเนดิคท์ คัมเบอร์แบทช์) ประกาศสงครามตัวต่อตัวกับสหพันธ์แกแล็กซี่ กัปตันเคิร์ก (คริส ไพน์), สป็อก (แซ็คคารี ควินโต) และลูกเรือผู้กล้าของยานยูเอสเอส เอ็นเตอร์ไพรซ์ จึงออกเดินทางเพื่อตามล่าอาชญากรที่อันตรายที่สุดเท่าที่เคยมีมาและพวกเขาต้องใช้อาวุธทุกอย่างที่มีเพื่อปกป้องโลกและทำลายแผนการคุกคามของข่านให้จงได้ ในผลงาน “แอ็คชั่นผจญภัยที่สร้างสรรค์และตื่นระทึก” ของเจ.เจ. อับรามส์

Complete name : [MINI Super-HQ]_Star.Trek.Into.Darkness.2013.1080p.AC3.x264.One2loadup.com.mkv
Format : Matroska
Format version : Version 4
File size : 4.75 GiB
Duration : 2 h 12 min
Overall bit rate : 5 146 kb/s
Encoded date : UTC 2016-10-12 09:09:31 / UTC 2016-10-12T05:41:10Z
Writing application : mkvmerge v8.3.0 (‘Over the Horizon’) 64bit
Writing library : libebml v1.3.1 + libmatroska v1.4.2 / Lavf55.12.0

Video
ID : 1
Format : AVC
Format/Info : Advanced Video Codec
Format profile : [email protected]
Format settings : CABAC / 4 Ref Frames
Format settings, CABAC : Yes
Format settings, ReFrames : 4 frames
Codec ID : V_MPEG4/ISO/AVC
Duration : 2 h 12 min
Bit rate : 3 203 kb/s
Width : 1 920 pixels
Height : 802 pixels
Display aspect ratio : 2.40:1
Original display aspect rat : 2.40:1
Frame rate mode : Constant
Frame rate : 23.976 (24000/1001) FPS
Color space : YUV
Chroma subsampling : 4:2:0
Bit depth : 8 bits
Scan type : Progressive
Bits/(Pixel*Frame) : 0.087
Stream size : 2.96 GiB (62%)
Writing library : x264 core 142 r2479 dd79a61
Encoding settings : cabac=1 / ref=1 / deblock=1:0:0 / analyse=0x1:0x111 / me=hex / subme=2 / psy=1 / psy_rd=1.00:0.00 / mixed_ref=0 / me_range=16 / chroma_me=1 / trellis=0 / 8x8dct=0 / cqm=0 / deadzone=21,11 / fast_pskip=1 / chroma_qp_offset=0 / threads=6 / lookahead_threads=2 / sliced_threads=0 / nr=0 / decimate=1 / interlaced=0 / bluray_compat=0 / constrained_intra=0 / bframes=3 / b_pyramid=2 / b_adapt=1 / b_bias=0 / direct=1 / weightb=1 / open_gop=0 / weightp=1 / keyint=240 / keyint_min=24 / scenecut=40 / intra_refresh=0 / rc_lookahead=10 / rc=crf / mbtree=1 / crf=23.0 / qcomp=0.60 / qpmin=0 / qpmax=69 / qpstep=4 / vbv_maxrate=20000 / vbv_bufsize=25000 / crf_max=0.0 / nal_hrd=none / filler=0 / ip_ratio=1.40 / aq=1:1.00
Language : Thai
Default : Yes
Forced : Yes
Color range : Limited
Color primaries : BT.709
Transfer characteristics : BT.709
Matrix coefficients : BT.709

Audio #1
ID : 2
Format : AC-3
Format/Info : Audio Coding 3
Commercial name : Dolby Digital
Codec ID : A_AC3
Duration : 2 h 12 min
Bit rate mode : Constant
Bit rate : 640 kb/s
Channel(s) : 6 channels
Channel layout : L R C LFE Ls Rs
Sampling rate : 48.0 kHz
Frame rate : 31.250 FPS (1536 SPF)
Bit depth : 16 bits
Compression mode : Lossy
Stream size : 605 MiB (12%)
Title : Surround
Language : English
Service kind : Complete Main
Default : No
Forced : Yes

Audio #2
ID : 3
Format : AC-3
Format/Info : Audio Coding 3
Commercial name : Dolby Digital
Codec ID : A_AC3
Duration : 2 h 12 min
Bit rate mode : Constant
Bit rate : 640 kb/s
Channel(s) : 6 channels
Channel layout : L R C LFE Ls Rs
Sampling rate : 48.0 kHz
Frame rate : 31.250 FPS (1536 SPF)
Bit depth : 16 bits
Compression mode : Lossy
Delay relative to video : -5 ms
Stream size : 605 MiB (12%)
Title : Surround
Language : English
Service kind : Complete Main
Default : No
Forced : No

Audio #3
ID : 4
Format : AC-3
Format/Info : Audio Coding 3
Commercial name : Dolby Digital
Codec ID : A_AC3
Duration : 2 h 12 min
Bit rate mode : Constant
Bit rate : 640 kb/s
Channel(s) : 6 channels
Channel layout : L R C LFE Ls Rs
Sampling rate : 48.0 kHz
Frame rate : 31.250 FPS (1536 SPF)
Bit depth : 16 bits
Compression mode : Lossy
Stream size : 605 MiB (12%)
Title : Surround
Language : Thai
Service kind : Complete Main
Default : Yes
Forced : Yes

Text #1
ID : 5
Format : PGS
Muxing mode : zlib
Codec ID : S_HDMV/PGS
Codec ID/Info : Picture based subtitle format used on BDs/HD-DVDs
Duration : 2 h 1 min
Bit rate : 12.8 kb/s
Count of elements : 3508
Stream size : 11.1 MiB (0%)
Language : English
Default : No
Forced : No

Text #2
ID : 6
Format : PGS
Muxing mode : zlib
Codec ID : S_HDMV/PGS
Codec ID/Info : Picture based subtitle format used on BDs/HD-DVDs
Duration : 2 h 11 min
Bit rate : 8 341 b/s
Count of elements : 2790
Stream size : 7.82 MiB (0%)
Language : Thai
Default : Yes
Forced : Yes

Menu
00:00:00.000 : :Chapter 1
00:04:59.839 : :Chapter 2
00:09:59.972 : :Chapter 3
00:14:59.646 : :Chapter 4
00:20:00.030 : :Chapter 5
00:24:59.287 : :Chapter 6
00:29:59.337 : :Chapter 7
00:34:59.220 : :Chapter 8
00:39:59.853 : :Chapter 9
00:44:59.319 : :Chapter 10
00:49:59.953 : :Chapter 11
00:54:59.877 : :Chapter 12
00:59:59.260 : :Chapter 13
01:04:59.602 : :Chapter 14
01:09:59.693 : :Chapter 15
01:14:59.618 : :Chapter 16
01:19:59.751 : :Chapter 17
01:24:59.217 : :Chapter 18
01:29:59.392 : :Chapter 19
01:34:59.692 : :Chapter 20
01:40:00.033 : :Chapter 21
01:44:59.833 : :Chapter 22
01:49:59.966 : :Chapter 23
01:54:59.640 : :Chapter 24
01:59:59.106 : :Chapter 25
02:04:59.740 : :Chapter 26
02:09:59.331 : :Chapter 27

DOWNLOAD


PART01 |||| PART02 |||| PART03 |||| PART04 |||| PART05

PART01 |||| PART02 |||| PART03 |||| PART04 |||| PART05

PART01 |||| PART02 |||| PART03 |||| PART04 |||| PART05

PART01 |||| PART02 |||| PART03 |||| PART04 |||| PART05


Leave A Reply

Your email address will not be published.

%d bloggers like this: