โหลดหนัง HD MINI-HD SUPER-HQ Full-HD 1080p VIP Master Zoom ซูม หนังใหม่ ออนไลน์ มาสเตอร์ ไทย จีน ฝรั่ง การ์ตูน

[MINI Super-HQ] Star Trek (2009) สงครามพิฆาตจักรวาล 1 [1080p] [พากย์ไทย 5.1 + เสียงอังกฤษ 5.1] [บรรยายไทย + อังกฤษ] [เสียงไทย + ซับไทย] [OPENLOAD]

2

โหลดหนัง  Star Trek (2009) สงครามพิฆาตจักรวาล

เรื่องย่อ Star Trek (2009) สงครามพิฆาตจักรวาล

จุดเริ่มต้นแห่งอนาคต ในภาพยนตร์ดังพลังสูงของผู้กำกับ เจ.เจ. อับรามส์ เป็นพายุบันเทิงพัดหอบผู้ชมให้ติดตามการกลับมาแก้แค้นจากอนาคตของ โรมูลัน เนโร ที่ทำให้คู่ปรับอย่าง เคิร์ก และ สป็อค ต้องกลับมาจับมือกันปฏิบัติภารกิจหยุดยั้งการทำลายล้างครั้งยิ่งใหญ่ที่สุดนี้ พร้อมด้วยทีมลูกเรือหน้าใหม่ทั้งหมดบนยานยูเอสเอส เอ็นเตอร์ไพรส์ จะต้องเผชิญหน้ากับการอันตรายที่ไม่อาจจินตนาการได้ และผจญภัยไปในที่ที่ไม่เคยมีใครได้ย่างกรายมาก่อน!!!

Complete name : [MINI Super-HQ]_Star.Trek.2009.1080p.AC3.x264.One2loadup.com.mkv
Format : Matroska
Format version : Version 4
File size : 4.67 GiB
Duration : 2 h 6 min
Overall bit rate : 5 269 kb/s
Encoded date : UTC 2016-10-12 10:11:01 / UTC 2016-10-12T08:57:38Z
Writing application : mkvmerge v8.3.0 (‘Over the Horizon’) 64bit
Writing library : libebml v1.3.1 + libmatroska v1.4.2 / Lavf55.12.0

Video
ID : 1
Format : AVC
Format/Info : Advanced Video Codec
Format profile : [email protected]
Format settings : CABAC / 4 Ref Frames
Format settings, CABAC : Yes
Format settings, ReFrames : 4 frames
Codec ID : V_MPEG4/ISO/AVC
Duration : 2 h 6 min
Bit rate : 3 339 kb/s
Width : 1 920 pixels
Height : 800 pixels
Display aspect ratio : 2.40:1
Frame rate mode : Constant
Frame rate : 23.976 FPS
Color space : YUV
Chroma subsampling : 4:2:0
Bit depth : 8 bits
Scan type : Progressive
Bits/(Pixel*Frame) : 0.091
Stream size : 2.96 GiB (63%)
Writing library : x264 core 142 r2479 dd79a61
Encoding settings : cabac=1 / ref=1 / deblock=1:0:0 / analyse=0x1:0x111 / me=hex / subme=2 / psy=1 / psy_rd=1.00:0.00 / mixed_ref=0 / me_range=16 / chroma_me=1 / trellis=0 / 8x8dct=0 / cqm=0 / deadzone=21,11 / fast_pskip=1 / chroma_qp_offset=0 / threads=6 / lookahead_threads=2 / sliced_threads=0 / nr=0 / decimate=1 / interlaced=0 / bluray_compat=0 / constrained_intra=0 / bframes=3 / b_pyramid=2 / b_adapt=1 / b_bias=0 / direct=1 / weightb=1 / open_gop=0 / weightp=1 / keyint=240 / keyint_min=24 / scenecut=40 / intra_refresh=0 / rc_lookahead=10 / rc=crf / mbtree=1 / crf=23.0 / qcomp=0.60 / qpmin=0 / qpmax=69 / qpstep=4 / vbv_maxrate=20000 / vbv_bufsize=25000 / crf_max=0.0 / nal_hrd=none / filler=0 / ip_ratio=1.40 / aq=1:1.00
Language : Thai
Default : Yes
Forced : Yes
Color range : Limited
Color primaries : BT.709
Transfer characteristics : BT.709
Matrix coefficients : BT.709

Audio #1
ID : 2
Format : AC-3
Format/Info : Audio Coding 3
Commercial name : Dolby Digital
Codec ID : A_AC3
Duration : 2 h 6 min
Bit rate mode : Constant
Bit rate : 640 kb/s
Channel(s) : 6 channels
Channel layout : L R C LFE Ls Rs
Sampling rate : 48.0 kHz
Frame rate : 31.250 FPS (1536 SPF)
Bit depth : 16 bits
Compression mode : Lossy
Stream size : 581 MiB (12%)
Title : Surround
Language : English
Service kind : Complete Main
Default : No
Forced : No

Audio #2
ID : 3
Format : AC-3
Format/Info : Audio Coding 3
Commercial name : Dolby Digital
Codec ID : A_AC3
Duration : 2 h 6 min
Bit rate mode : Constant
Bit rate : 640 kb/s
Channel(s) : 6 channels
Channel layout : L R C LFE Ls Rs
Sampling rate : 48.0 kHz
Frame rate : 31.250 FPS (1536 SPF)
Bit depth : 16 bits
Compression mode : Lossy
Delay relative to video : -5 ms
Stream size : 581 MiB (12%)
Title : Surround
Language : English
Service kind : Complete Main
Default : No
Forced : No

Audio #3
ID : 4
Format : AC-3
Format/Info : Audio Coding 3
Commercial name : Dolby Digital
Codec ID : A_AC3
Duration : 2 h 6 min
Bit rate mode : Constant
Bit rate : 640 kb/s
Channel(s) : 6 channels
Channel layout : L R C LFE Ls Rs
Sampling rate : 48.0 kHz
Frame rate : 31.250 FPS (1536 SPF)
Bit depth : 16 bits
Compression mode : Lossy
Stream size : 581 MiB (12%)
Title : Surround
Language : Thai
Service kind : Complete Main
Default : Yes
Forced : Yes

Text #1
ID : 5
Format : PGS
Muxing mode : zlib
Codec ID : S_HDMV/PGS
Codec ID/Info : Picture based subtitle format used on BDs/HD-DVDs
Duration : 2 h 5 min
Bit rate : 7 381 b/s
Count of elements : 2582
Stream size : 6.62 MiB (0%)
Language : Thai
Default : No
Forced : Yes

Text #2
ID : 6
Format : PGS
Muxing mode : zlib
Codec ID : S_HDMV/PGS
Codec ID/Info : Picture based subtitle format used on BDs/HD-DVDs
Duration : 1 h 54 min
Bit rate : 33 b/s
Count of elements : 10
Stream size : 28.1 KiB (0%)
Language : Thai
Default : Yes
Forced : Yes

Menu
00:00:00.000 : :Chapter 1
00:11:57.298 : :Chapter 2
00:19:45.182 : :Chapter 3
00:28:09.185 : :Chapter 4
00:35:33.587 : :Chapter 5
00:44:10.479 : :Chapter 6
00:52:21.803 : :Chapter 7
01:01:33.688 : :Chapter 8
01:11:40.168 : :Chapter 9
01:20:39.582 : :Chapter 10
01:27:35.373 : :Chapter 11
01:36:29.656 : :Chapter 12
01:44:34.349 : :Chapter 13
01:53:13.493 : :Chapter 14
01:58:20.633 : :Chapter 15

DOWNLOAD


PART01 |||| PART02 |||| PART03 |||| PART04 |||| PART05

PART01 |||| PART02 |||| PART03 |||| PART04 |||| PART05

PART01 |||| PART02 |||| PART03 |||| PART04 |||| PART05

PART01 |||| PART02 |||| PART03 |||| PART04 |||| PART05


2 Comments
  1. Cody Tinnam
    Cody Tinnam says

    part 4 โหลดไม่ได้ค่ะ

  2. Cody Tinnam
    Cody Tinnam says

    ตอนนี้โหลดได้แล้วค่ะ
    ขอบคุณค่ะ ^^

Leave A Reply

Your email address will not be published.

%d bloggers like this: