[MINI Super-HQ] Spiritual Kung Fu (1978) ไอ้หนุ่มพันมือ ภาค 2 [1080p] [พากย์ไทย 2.0 + เสียงจีน + อังกฤษ 5.1] [บรรยายไทย + อังกฤษ] [เสียงไทย + ซับไทย] [OPENLOAD]

0

โหลดหนัง  Spiritual Kung Fu (1978) ไอ้หนุ่มพันมือ ภาค 2

เรื่องย่อ Spiritual Kung Fu (1978) ไอ้หนุ่มพันมือ ภาค 2

เรื่องราว อีกหนึ่งสุดยอดหนังแนวกังฟูที่ขึ้นทำเนียบหนังคลาสสิคอีกเรื่องของ เฉินหลง ใน ไอ้หนุ่มพันมือ 2 เฉินหลงรับบทลูกศิษย์วัดเส้าหลินที่เป็นตัวตลกและถูกดูถูกจากเพื่อนร่วมสำนักอยู่เสมอ แต่แล้วโชคชะตาทำให้เขากลายเป็นยอดฝีมือ เมื่อเขาได้พบตำราสุดยอดเคล็ดวิชาที่หายไปจากยุทธภพมานานกว่า 100 ปีโดยบังเอิญและได้ฝึกวิชาจากผี 5 ตนที่เป็นผู้พิทักษ์ตำรานี้

Complete name : [MINI-HD]_Spiritual.Kung.Fu.1978.1080p.BrRip.DTS.x264.One2loadup.com.mkv
Format : Matroska
Format version : Version 4
File size : 6.98 GiB
Duration : 1 h 38 min
Overall bit rate : 10.1 Mb/s
Movie name : [MINI-HD]_Spiritual.Kung.Fu.1978.1080p.BrRip.DTS.x264.One2loadup.com
Encoded date : UTC 2017-08-08 08:57:26
Writing application : mkvmerge v6.9.1 (‘Blue Panther’) 32bit built on Apr 18 2014 18:15:44
Writing library : libebml v1.3.0 + libmatroska v1.4.1

Video
ID : 1
Format : AVC
Format/Info : Advanced Video Codec
Format profile : [email protected]
Format settings : CABAC / 11 Ref Frames
Format settings, CABAC : Yes
Format settings, ReFrames : 11 frames
Codec ID : V_MPEG4/ISO/AVC
Duration : 1 h 38 min
Width : 1 280 pixels
Height : 536 pixels
Display aspect ratio : 2.40:1
Frame rate mode : Constant
Frame rate : 23.976 (24000/1001) FPS
Color space : YUV
Chroma subsampling : 4:2:0
Bit depth : 8 bits
Scan type : Progressive
Title : [MINI-HD]_Spiritual.Kung.Fu.1978.1080p.BrRip.DTS.x264.One2loadup.com
Writing library : x264 core 142 r2431+42 c69a006 tMod [[email protected] X86_64]
Encoding settings : cabac=1 / ref=11 / deblock=1:-3:-3 / analyse=0x3:0x133 / me=tesa / subme=10 / psy=1 / fade_compensate=0.00 / psy_rd=1.00:0.00 / mixed_ref=1 / me_range=48 / chroma_me=1 / trellis=2 / 8x8dct=1 / cqm=0 / deadzone=21,11 / fast_pskip=0 / chroma_qp_offset=-2 / threads=6 / lookahead_threads=1 / sliced_threads=0 / nr=0 / decimate=0 / interlaced=0 / bluray_compat=0 / constrained_intra=0 / fgo=0 / bframes=11 / b_pyramid=2 / b_adapt=2 / b_bias=0 / direct=1 / weightb=1 / open_gop=0 / weightp=2 / keyint=240 / keyint_min=23 / scenecut=40 / intra_refresh=0 / rc_lookahead=60 / rc=crf / mbtree=0 / crf=17.8500 / qcomp=0.65 / qpmin=0:0:0 / qpmax=69:69:69 / qpstep=4 / vbv_maxrate=62500 / vbv_bufsize=78125 / crf_max=0.0 / nal_hrd=none / filler=0 / ip_ratio=1.30 / pb_ratio=1.15 / aq=3:0.80 / aq-sensitivity=10.00 / aq-factor=1.00:1.00:1.00 / aq2=0 / aq3=0
Language : Chinese
Default : Yes
Forced : Yes

Audio #1
ID : 2
Format : AC-3
Format/Info : Audio Coding 3
Codec ID : A_AC3
Duration : 1 h 38 min
Channel(s) : 6 channels
Sampling rate : 48.0 kHz
Compression mode : Lossy
Language : Thai
Default : Yes
Forced : Yes

Audio #2
ID : 3
Format : AC-3
Format/Info : Audio Coding 3
Commercial name : Dolby Digital
Codec ID : A_AC3
Duration : 1 h 38 min
Bit rate mode : Constant
Bit rate : 448 kb/s
Channel(s) : 6 channels
Channel layout : L R C LFE Ls Rs
Sampling rate : 48.0 kHz
Frame rate : 31.250 FPS (1536 SPF)
Bit depth : 16 bits
Compression mode : Lossy
Stream size : 317 MiB (4%)
Language : English
Service kind : Complete Main
Default : No
Forced : No

Audio #3
ID : 4
Format : AC-3
Format/Info : Audio Coding 3
Commercial name : Dolby Digital
Codec ID : A_AC3
Duration : 1 h 38 min
Bit rate mode : Constant
Bit rate : 640 kb/s
Channel(s) : 6 channels
Channel layout : L R C LFE Ls Rs
Sampling rate : 48.0 kHz
Frame rate : 31.250 FPS (1536 SPF)
Bit depth : 16 bits
Compression mode : Lossy
Stream size : 453 MiB (6%)
Title : Cantonese [email protected] kbps
Language : Chinese
Service kind : Complete Main
Default : No
Forced : No

Audio #4
ID : 5
Format : AAC LC
Format/Info : Advanced Audio Codec Low Complexity
Codec ID : A_AAC-2
Duration : 1 h 38 min
Channel(s) : 2 channels
Channel layout : L R
Sampling rate : 48.0 kHz
Frame rate : 46.875 FPS (1024 SPF)
Compression mode : Lossy
Title : Cantonese [email protected] kbps
Language : Chinese
Default : No
Forced : No

Audio #5
ID : 6
Format : AC-3
Format/Info : Audio Coding 3
Commercial name : Dolby Digital
Codec ID : A_AC3
Duration : 1 h 38 min
Bit rate mode : Constant
Bit rate : 192 kb/s
Channel(s) : 2 channels
Channel layout : L R
Sampling rate : 48.0 kHz
Frame rate : 31.250 FPS (1536 SPF)
Bit depth : 16 bits
Compression mode : Lossy
Stream size : 136 MiB (2%)
Title : Mandarin
Language : Chinese
Service kind : Complete Main
Default : No
Forced : No

Text #1
ID : 7
Format : VobSub
Muxing mode : zlib
Codec ID : S_VOBSUB
Codec ID/Info : Picture based subtitle format used on DVDs
Language : Thai
Default : Yes
Forced : Yes

Text #2
ID : 8
Format : PGS
Muxing mode : zlib
Codec ID : S_HDMV/PGS
Codec ID/Info : Picture based subtitle format used on BDs/HD-DVDs
Language : Thai
Default : No
Forced : No

Text #3
ID : 9
Format : UTF-8
Codec ID : S_TEXT/UTF8
Codec ID/Info : UTF-8 Plain Text
Language : English
Default : No
Forced : Yes

DOWNLOAD


PART01 |||| PART02 |||| PART03 |||| PART04 |||| PART05 |||| PART06 |||| PART07

PART01 |||| PART02 |||| PART03 |||| PART04 |||| PART05 |||| PART06 |||| PART07

PART01 |||| PART02 |||| PART03 |||| PART04 |||| PART05 |||| PART06 |||| PART07

PART01 |||| PART02 |||| PART03 |||| PART04 |||| PART05 |||| PART06 |||| PART07


Leave A Reply

Your email address will not be published.

%d bloggers like this: