โหลดหนัง HD MINI-HD SUPER-HQ Full-HD 1080p VIP Master Zoom ซูม หนังใหม่ ออนไลน์ มาสเตอร์ ไทย จีน ฝรั่ง การ์ตูน

[MINI Super-HQ] Solo: A Star Wars Story (2018) ฮาน โซโล: ตำนานสตาร์ วอร์ส [1080p] [พากย์ไทย 5.1 + เสียงอังกฤษ DTS] [บรรยายไทย + อังกฤษ] [เสียงไทย + ซับไทย]

0

โหลดหนัง  Solo: A Star Wars Story (2018) ฮาน โซโล: ตำนานสตาร์ วอร์ส

เรื่องย่อ Solo: A Star Wars Story (2018) ฮาน โซโล: ตำนานสตาร์ วอร์ส

ด้วยยานมิลเลเนียมฟัลคอน และการผจญภัยในกาแล็กซี่อันแสนไกลโพ้น ใน Solo: A Star Wars Story นี่คือการผจญภัยครั้งใหม่ของตัวโกงที่ผู้คนหลงรักมาก ที่สุดในจักรวาลผ่านเรื่องราวความกล้าหาญในการเข้าไปผจญในโลกใต้ดินของเหล่าอาชญากรอันแสนอันตรายฮาน โซโลได้พบกับสุดยอดนักบินคู่หูของเขา ชิวเบคก้าและต้องเผชิญหน้ากับนักพนันสุดร้ายกาจ Lando Calrissian ในการผจญภัยครั้งนี้จะเป็นหนึ่งในเรื่องราวของสตาร์วอร์สที่ห่างไกลจากคำว่าฮีโร่มากที่สุด!!!

Complete name : [MINI Super-HQ]_Solo.A.Star.Wars.Story.2018.1080p.BrRip.DTS.x264.One2loadup.com.mkv
Format : Matroska
Format version : Version 4 / Version 2
File size : 4.46 GiB
Duration : 2 h 14 min
Overall bit rate : 4 743 kb/s
Movie name : [MINI Super-HQ]_Solo.A.Star.Wars.Story.2018.1080p.BrRip.DTS.x264.One2loadup.com
Encoded date : UTC 2010-02-22 21:41:31
Writing application : mkvmerge v5.9.0 (‘On The Loose’) built on Dec 9 2012 15:37:01
Writing library : libebml v1.3.0 + libmatroska v1.4.0

Video
ID : 1
Format : AVC
Format/Info : Advanced Video Codec
Format profile : [email protected]
Format settings : CABAC / 4 Ref Frames
Format settings, CABAC : Yes
Format settings, ReFrames : 4 frames
Codec ID : V_MPEG4/ISO/AVC
Duration : 2 h 14 min
Bit rate : 3 150 kb/s
Width : 1 920 pixels
Height : 804 pixels
Display aspect ratio : 2.40:1
Frame rate mode : Constant
Frame rate : 23.976 (24000/1001) FPS
Color space : YUV
Chroma subsampling : 4:2:0
Bit depth : 8 bits
Scan type : Progressive
Bits/(Pixel*Frame) : 0.085
Stream size : 3.06 GiB (69%)
Title : [MINI Super-HQ]_Solo.A.Star.Wars.Story.2018.1080p.BrRip.DTS.x264.One2loadup.com
Writing library : x264 core 146 r2538 121396c
Encoding settings : cabac=1 / ref=5 / deblock=1:-3:-3 / analyse=0x3:0x133 / me=tesa / subme=11 / psy=1 / psy_rd=1.00:0.15 / mixed_ref=1 / me_range=48 / chroma_me=1 / trellis=2 / 8x8dct=1 / cqm=0 / deadzone=21,11 / fast_pskip=1 / chroma_qp_offset=-3 / threads=54 / lookahead_threads=4 / sliced_threads=0 / nr=0 / decimate=1 / interlaced=0 / bluray_compat=1 / constrained_intra=0 / bframes=3 / b_pyramid=1 / b_adapt=2 / b_bias=0 / direct=3 / weightb=1 / open_gop=0 / weightp=1 / keyint=250 / keyint_min=1 / scenecut=40 / intra_refresh=0 / rc_lookahead=60 / rc=2pass / mbtree=1 / bitrate=3150 / ratetol=1.0 / qcomp=0.60 / qpmin=0 / qpmax=69 / qpstep=4 / cplxblur=20.0 / qblur=0.5 / ip_ratio=1.40 / aq=1:1.30
Language : English
Default : Yes
Forced : No

Audio #1
ID : 2
Format : AC-3
Format/Info : Audio Coding 3
Codec ID : A_AC3
Duration : 2 h 14 min
Bit rate mode : Constant
Bit rate : 640 kb/s
Channel(s) : 6 channels
Channel positions : Front: L C R, Side: L R, LFE
Sampling rate : 48.0 kHz
Frame rate : 31.250 FPS (1536 SPF)
Bit depth : 16 bits
Compression mode : Lossy
Delay relative to video : 28 ms
Stream size : 617 MiB (13%)
Title : Thai BluRay Master
Language : Thai
Service kind : Complete Main
Default : Yes
Forced : Yes

Audio #2
ID : 3
Format : DTS
Format/Info : Digital Theater Systems
Codec ID : A_DTS
Duration : 2 h 14 min
Bit rate mode : Constant
Bit rate : 755 kb/s
Channel(s) : 6 channels
Channel positions : Front: L C R, Side: L R, LFE
Sampling rate : 48.0 kHz
Frame rate : 93.750 FPS (512 SPF)
Bit depth : 24 bits
Compression mode : Lossy
Stream size : 727 MiB (16%)
Title : English DTS
Language : English
Default : No
Forced : No

Text #1
ID : 4
Format : VobSub
Codec ID : S_VOBSUB
Codec ID/Info : Picture based subtitle format used on DVDs
Title : Thai For Non-English Part
Language : Thai
Default : Yes
Forced : Yes

Text #2
ID : 5
Format : VobSub
Codec ID : S_VOBSUB
Codec ID/Info : Picture based subtitle format used on DVDs
Title : Thai 480p
Language : Thai
Default : No
Forced : No

Text #3
ID : 6
Format : VobSub
Codec ID : S_VOBSUB
Codec ID/Info : Picture based subtitle format used on DVDs
Title : Thai 720p
Language : Thai
Default : No
Forced : No

Text #4
ID : 7
Format : VobSub
Codec ID : S_VOBSUB
Codec ID/Info : Picture based subtitle format used on DVDs
Title : Thai 1080p BluRay Master
Language : Thai
Default : No
Forced : No

Text #5
ID : 8
Format : VobSub
Codec ID : S_VOBSUB
Codec ID/Info : Picture based subtitle format used on DVDs
Title : Thai 1080p Angsana
Language : Thai
Default : No
Forced : No

Text #6
ID : 9
Format : VobSub
Codec ID : S_VOBSUB
Codec ID/Info : Picture based subtitle format used on DVDs
Title : Thai 1080p Yellow
Language : Thai
Default : No
Forced : No

Text #7
ID : 10
Format : VobSub
Codec ID : S_VOBSUB
Codec ID/Info : Picture based subtitle format used on DVDs
Title : Thai 1080p Out
Language : Thai
Default : No
Forced : No

Text #8
ID : 11
Format : VobSub
Codec ID : S_VOBSUB
Codec ID/Info : Picture based subtitle format used on DVDs
Title : Thai 1080p BIG
Language : Thai
Default : No
Forced : No

Text #9
ID : 12
Format : VobSub
Codec ID : S_VOBSUB
Codec ID/Info : Picture based subtitle format used on DVDs
Title : Thai 1080p Out [BIG]
Language : Thai
Default : No
Forced : No

Text #10
ID : 13
Format : PGS
Codec ID : S_HDMV/PGS
Codec ID/Info : Picture based subtitle format used on BDs/HD-DVDs
Title : Thai PGS BluRay MAster
Language : Thai
Default : No
Forced : No

Text #11
ID : 14
Format : PGS
Codec ID : S_HDMV/PGS
Codec ID/Info : Picture based subtitle format used on BDs/HD-DVDs
Title : Thai PGS Yellow
Language : Thai
Default : No
Forced : No

Text #12
ID : 15
Format : PGS
Codec ID : S_HDMV/PGS
Codec ID/Info : Picture based subtitle format used on BDs/HD-DVDs
Title : Thai PGS Out
Language : Thai
Default : No
Forced : No

Text #13
ID : 16
Format : PGS
Codec ID : S_HDMV/PGS
Codec ID/Info : Picture based subtitle format used on BDs/HD-DVDs
Title : English
Language : English
Default : No
Forced : No

Menu
00:00:00.000 : :00:00:00.000
00:00:53.845 : :00:00:53.845
00:02:10.213 : :00:02:10.213
00:03:53.150 : :00:03:53.150
00:06:00.485 : :00:06:00.485
00:09:27.567 : :00:09:27.567
00:13:16.045 : :00:13:16.045
00:14:14.020 : :00:14:14.020
00:16:12.263 : :00:16:12.263
00:19:45.101 : :00:19:45.101
00:22:43.821 : :00:22:43.821
00:24:37.267 : :00:24:37.267
00:27:00.035 : :00:27:00.035
00:30:02.926 : :00:30:02.926
00:32:54.681 : :00:32:54.681
00:39:09.764 : :00:39:09.764
00:41:59.225 : :00:41:59.225
00:43:20.181 : :00:43:20.181
00:44:32.128 : :00:44:32.128
00:48:03.756 : :00:48:03.756
00:51:58.324 : :00:51:58.324
00:53:17.528 : :00:53:17.528
00:57:23.523 : :00:57:23.523
01:00:16.780 : :01:00:16.780
01:02:40.882 : :01:02:40.882
01:04:51.262 : :01:04:51.262
01:05:29.509 : :01:05:29.509
01:07:12.028 : :01:07:12.028
01:08:05.915 : :01:08:05.915
01:10:00.113 : :01:10:00.113
01:12:44.193 : :01:12:44.193
01:14:40.851 : :01:14:40.851
01:18:30.873 : :01:18:30.873
01:23:15.741 : :01:23:15.741
01:26:32.646 : :01:26:32.646
01:30:33.136 : :01:30:33.136
01:35:19.672 : :01:35:19.672
01:37:04.861 : :01:37:04.861
01:38:52.802 : :01:38:52.802
01:41:18.531 : :01:41:18.531
01:43:02.676 : :01:43:02.676
01:45:27.821 : :01:45:27.821
01:46:32.177 : :01:46:32.177
01:49:45.996 : :01:49:45.996
01:53:33.890 : :01:53:33.890
01:57:13.902 : :01:57:13.902
01:58:55.128 : :01:58:55.128
02:01:34.829 : :02:01:34.829
02:03:20.893 : :02:03:20.893
02:06:09.353 : :02:06:09.353

DOWNLOAD


PART01 |||| PART02 |||| PART03 |||| PART04 |||| PART05

PART01 |||| PART02 |||| PART03 |||| PART04 |||| PART05

PART01 |||| PART02 |||| PART03 |||| PART04 |||| PART05

PART01 |||| PART02 |||| PART03 |||| PART04 |||| PART05


Leave A Reply

Your email address will not be published.

%d bloggers like this: