เว็บโหลดหนัง HD MINI-HD SUPER-HQ Full-HD 1080p One2up VIP Master Zoom ซูม หนังใหม่ ออนไลน์ มาสเตอร์ ไทย จีน ฝรั่ง การ์ตูน

[MINI Super-HQ] Saving Mr. Banks (2013) สุภาพบุรุษนักฝัน [1080P] [พากย์อังกฤษ DTS] [DTS.x264] [Soundtrack บรรยายไทย + อังกฤษ] [ซับไทย + อังกฤษ] [ONE2UP]

0

โหลดหนัง  Saving Mr. Banks (2013) สุภาพบุรุษนักฝัน

เรื่องย่อ Saving Mr. Banks (2013) สุภาพบุรุษนักฝัน

เอ็มม่า ธอมป์สัน นักแสดงเจ้าของสองรางวัลออสการ์ และเพื่อนนักแสดงสองรางวัลออสการ์ ทอม แฮงค์ส ร่วมงานกันในภาพยนตร์ที่ได้รับแรงบันดาลใจจากเรื่องราวที่ไม่ธรรมดาและไม่เคยเปิดเผยมาก่อน การเดิทนทางของภาพยนตร์สุดคลาสสิคของดิสนีย์เรื่อง “แมรี่ ป๊อปปิ้นส์” ที่กว่าจะถูกสร้างออกมาฉายในโรงภาพยนตร์ได้สำเร็จเมื่อ วอลท์ ดิสนีย์ ให้คำสัญญากับลูกสาวของเขาที่ขอร้องให้สร้างหนังจากหนังสือเล่มโปรดของพวกเธอที่เขียนโดย พี.แอล. เทรเวอร์ส เรื่อง“แมรี่ ป๊อปปิ้นส์” เขาไม่รู้เลยว่ามันคือคำสัญญาที่ต้องใช้เวลากว่า 20ปี ที่จะทำตามสัญญานั้นสำเร็จ ในภารกิจตามล่าเพื่อให้ได้มาซึ่งสิทธิ์ในการสร้างหนังเรื่องนี้ วอลท์ต้องรับมือกับนักเขียนอารมณ์ร้าย, ไม่ยอมคน และไม่มีความตั้งใจที่จะปล่อยให้พี่เลี้ยงมหัศจรรย์ของเธอถูกทำลายโดยวงการฮอลลีวูด แต่เมื่อหนังสือเริ่มหยุดขาย รายได้เริ่มลดลง เทรเวอร์สจึงยอมตกลงที่จะเดินทางไปลอส แองเจิลลิสเพื่อไปรับฟังแผนการดัดแปลงหนังสือของเธอให้กลายเป็นหนังระยะเวลาสั้นๆเพียง 2 สัปดาห์ในปี 1961 ที่วอลท์ ดิสนีย์ทุ่มสุดตัวกับมัน ด้วยการเสนอสตอรี่บอร์ดล้ำจินตนาการและบทเพลงอันสดใสจากการประพันธ์ของพี่น้องเชอร์แมนผู้เก่งกาจ งัดทุกอย่างออกมาเพื่อจู่โจมหว่านล้อม พี.แอล. เทรเวอร์ส แต่นักเขียนเรื่องเยอะคนนี้ก็ยังไม่ยอมตกลง ความหวังของเขาเริ่มเลือนลาง เมื่อเทรเวอร์สยังคงยืนยันคำเดิม และสิทธิ์ในการสร้างเริ่มหลุดลอยออกจากมือของเขาแต่เมื่อเขาย้อนคิดไปถึงวัยเด็กของเขา วอลท์ได้ค้นพบความจริงเกี่ยวกับเรื่องราวต่างๆที่ตามหลอกหลอนเธอ พวกเขาทั้งสองคนจึงได้ปลดปล่อยแมรี่ ป๊อปปิ้นส์ให้เป็นอิสระ และนำไปสู่การเป็นภาพยนตร์อันเป็นที่รักในประวัติศาสตร์วงการภาพยนตร์

Complete name : [MINI Super-HQ]_Saving.Mr.Banks.2013.1080p.DTS.x264.One2loadup.com.mkv
Format : Matroska
Format version : Version 4 / Version 2
File size : 3.90 GiB
Duration : 2 h 5 min
Overall bit rate : 4 443 kb/s
Movie name : [MINI Super-HQ]_Saving.Mr.Banks.2013.1080p.DTS.x264.One2loadup.com
Encoded date : UTC 2014-05-24 14:00:18
Writing application : mkvmerge v6.2.0 (‘Promised Land’) built on Apr 28 2013 12:22:01
Writing library : libebml v1.3.0 + libmatroska v1.4.0

Video
ID : 1
Format : AVC
Format/Info : Advanced Video Codec
Format profile : [email protected]
Format settings, CABAC : Yes
Format settings, RefFrames : 4 frames
Codec ID : V_MPEG4/ISO/AVC
Duration : 2 h 5 min
Bit rate : 3 600 kb/s
Width : 1 920 pixels
Height : 800 pixels
Display aspect ratio : 2.40:1
Frame rate mode : Constant
Frame rate : 23.976 (24000/1001) FPS
Color space : YUV
Chroma subsampling : 4:2:0
Bit depth : 8 bits
Scan type : Progressive
Bits/(Pixel*Frame) : 0.098
Stream size : 3.16 GiB (81%)
Title : [MINI Super-HQ]_Saving.Mr.Banks.2013.1080p.DTS.x264.One2loadup.com
Writing library : x264 core 140 r2377 1ca7bb9
Encoding settings : cabac=1 / ref=4 / deblock=1:-3:-3 / analyse=0x3:0x133 / me=tesa / subme=10 / psy=1 / psy_rd=1.00:0.00 / mixed_ref=1 / me_range=16 / chroma_me=1 / trellis=2 / 8x8dct=1 / cqm=0 / deadzone=21,11 / fast_pskip=1 / chroma_qp_offset=-2 / threads=6 / lookahead_threads=1 / sliced_threads=0 / nr=0 / decimate=1 / interlaced=0 / bluray_compat=0 / constrained_intra=0 / bframes=6 / b_pyramid=2 / b_adapt=1 / b_bias=0 / direct=1 / weightb=1 / open_gop=0 / weightp=2 / keyint=240 / keyint_min=24 / scenecut=40 / intra_refresh=0 / rc_lookahead=40 / rc=2pass / mbtree=1 / bitrate=3600 / ratetol=1.0 / qcomp=0.60 / qpmin=0 / qpmax=69 / qpstep=4 / cplxblur=20.0 / qblur=0.5 / vbv_maxrate=20000 / vbv_bufsize=25000 / nal_hrd=none / filler=0 / ip_ratio=1.40 / aq=1:1.00
Language : English
Default : Yes
Forced : No

Audio
ID : 2
Format : DTS
Format/Info : Digital Theater Systems
Mode : 16
Format settings, Endianness : Big
Codec ID : A_DTS
Duration : 2 h 5 min
Bit rate mode : Constant
Bit rate : 755 kb/s
Channel(s) : 6 channels
Channel positions : Front: L C R, Side: L R, LFE
Sampling rate : 48.0 kHz
Frame rate : 93.750 FPS (512 SPF)
Bit depth : 24 bits
Compression mode : Lossy
Stream size : 678 MiB (17%)
Title : eng dts
Language : English
Default : Yes
Forced : No

Text #1
ID : 3
Format : VobSub
Codec ID : S_VOBSUB
Codec ID/Info : Picture based subtitle format used on DVDs
Title : [SUB THAI 480P FROM BLU-RAY]
Language : Thai
Default : Yes
Forced : No

Text #2
ID : 4
Format : VobSub
Codec ID : S_VOBSUB
Codec ID/Info : Picture based subtitle format used on DVDs
Title : [SUB THAI 480P FROM DVD MASTER] Freesia UPC
Language : Thai
Default : No
Forced : No

Text #3
ID : 5
Format : VobSub
Codec ID : S_VOBSUB
Codec ID/Info : Picture based subtitle format used on DVDs
Title : [SUB THAI 480P FROM BLU-RAY] under
Language : Thai
Default : No
Forced : No

Text #4
ID : 6
Format : VobSub
Codec ID : S_VOBSUB
Codec ID/Info : Picture based subtitle format used on DVDs
Title : [SUB THAI 1080P FROM BLU-RAY]
Language : Thai
Default : No
Forced : No

Text #5
ID : 7
Format : PGS
Codec ID : S_HDMV/PGS
Codec ID/Info : Picture based subtitle format used on BDs/HD-DVDs
Title : [SUB THAI PGS FROM BLU-RAY]
Language : Thai
Default : No
Forced : No

Text #6
ID : 8
Format : PGS
Codec ID : S_HDMV/PGS
Codec ID/Info : Picture based subtitle format used on BDs/HD-DVDs
Title : THAI PGS TH Sarabun
Language : Thai
Default : No
Forced : No

Text #7
ID : 9
Format : UTF-8
Codec ID : S_TEXT/UTF8
Codec ID/Info : UTF-8 Plain Text
Title : eng srt
Language : English
Default : No
Forced : No

Menu
00:00:00.000 : en:I Will Not Go
00:06:41.401 : en:The Winds Bring Change
00:10:11.194 : en:Our New Home
00:16:28.404 : en:Welcome Aboard
00:26:07.274 : en:And It Begins
00:29:33.981 : en:Do You Trust Me?
00:32:43.170 : en:Everything Is Wrong!
00:35:58.782 : en:A Fuzzy Future
00:40:19.292 : en:Try And Catch Her
00:45:10.666 : en:A Spoonful Of Sugara
00:48:48.926 : en:Do It For Your Daughter
00:53:28.205 : en:A Turning Point
00:57:06.423 : en:You Don
01:07:23.373 : en:The Simplicity Of Life
01:12:46.737 : en:Mother IsLeaving
01:15:47.752 : en:Help Is On The Way
01:19:05.908 : en:The Happiest Place OnEarth
01:24:02.496 : en:Let’s Go Fly A Kite
01:28:41.066 : en:The Illness
01:32:49.814 : en:A Simple Belief
01:38:12.178 : en:My Own Banks
01:47:33.572 : en:Surprise Invite
01:53:46.486 : en:The Real Mary Poppins
01:58:44.909 : en:End Credits



PART01 |||| PART02 |||| PART03 |||| PART04

PART01 |||| PART02 |||| PART03 |||| PART04


PART01 |||| PART02 |||| PART03 |||| PART04


PART01 |||| PART02 |||| PART03 |||| PART04


Leave A Reply

Your email address will not be published.

%d bloggers like this: