โหลดหนัง HD MINI-HD SUPER-HQ Full-HD 1080p VIP Master Zoom ซูม หนังใหม่ ออนไลน์ มาสเตอร์ ไทย จีน ฝรั่ง การ์ตูน

[MINI Super-HQ] Sagrada Reset Part I (2017) ซากราดะ รีเซ็ท เมืองมหัศจรรย์ คนเปลี่ยนเวลา ภาค 1 [1080p] [พากย์ไทย 5.1 + เสียงญี่ปุ่น DTS] [บรรยายไทย + อังกฤษ] [เสียงไทย + ซับไทย]

0

Sagrada Reset (2017) ซากราดะ รีเซ็ท เมืองมหัศจรรย์ คนเปลี่ยนเวลา ภาค 1

โหลดหนัง Sagrada Reset Part I (2017) ซากราดะ รีเซ็ท เมืองมหัศจรรย์ คนเปลี่ยนเวลา ภาค 1

เรื่องย่อ Sagrada Reset Part I (2017) ซากราดะ รีเซ็ท เมืองมหัศจรรย์ คนเปลี่ยนเวลา ภาค 1

เวลา ว่าด้วยเรื่องราวที่เกิดขึ้นในเมืองซากุราดะ เมืองที่เต็มไปด้วยคนที่มีพลังวิเศษซึ่งความสามารถของแต่ละคนนั้นจะแตกต่างกันออกไป นักเรียนสาวอย่าง มิโซระ ฮารูกิ มีความสามารถย้อนเวลาและรีเซ็ตโลกได้สูงสุด 3 วันแต่เธอจะสูญเสียความทรงจำที่เกิดขึ้น เธอเป็นเพื่อนสนิทกับ เค อาซาอิ นักเรียนหนุ่มที่มีความสามารถจดจำได้ทุกอย่าง แม้มิโซระจะรีเซ็ตโลกไปแล้วก็ตามเมื่อทั้งสองร่วมมือกัน ทว่าทั้งคู่เคยมีเหตุการณ์ร้ายแรงในอดีตที่ไม่สามารถ แก้ไขได้ เมื่อการรีเซ็ตของฮารูกิได้บังเอิญทำให้ ซูมิเระ โซมะ เพื่อนของ เค อาซาอิ เสียชีวิตความรู้สึกผิดที่พวกเขามีต่อซูมิเระได้ทำให้ทั้งสองพ ยายามหาวิธีที่จะช่วยชีวิตเพื่อนของเขาในอดีตกลับมา และเมื่อทั้งสองได้เริ่มรู้จักกับพลังวิเศษของคนอื่น ๆ ทำให้พวกเขาเริ่มมีความหวังที่จะสามารถพาซูมิเระกลับ มาได้อีกครั้ง!!!

Complete name : [MINI Super-HQ]_Sakurada.Reset.Part.I.2017.1080p.BrRip.DTS.x264.One2loadup.com.mkv
Format : Matroska
Format version : Version 4 / Version 2
File size : 3.89 GiB
Duration : 1 h 43 min
Overall bit rate : 5 394 kb/s
Movie name : [MINI Super-HQ]_Sakurada.Reset.Part.I.2017.1080p.BrRip.DTS.x264.One2loadup.com
Encoded date : UTC 2010-02-22 21:41:31
Writing application : mkvmerge v5.9.0 (‘On The Loose’) built on Dec 9 2012 15:37:01
Writing library : libebml v1.3.0 + libmatroska v1.4.0

Video
ID : 1
Format : AVC
Format/Info : Advanced Video Codec
Format profile : [email protected]
Format settings : CABAC / 4 Ref Frames
Format settings, CABAC : Yes
Format settings, ReFrames : 4 frames
Codec ID : V_MPEG4/ISO/AVC
Duration : 1 h 43 min
Bit rate : 4 114 kb/s
Width : 1 920 pixels
Height : 1 036 pixels
Display aspect ratio : 1.85:1
Frame rate mode : Constant
Frame rate : 23.976 (24000/1001) FPS
Color space : YUV
Chroma subsampling : 4:2:0
Bit depth : 8 bits
Scan type : Progressive
Bits/(Pixel*Frame) : 0.086
Stream size : 2.94 GiB (76%)
Title : [MINI Super-HQ]_Sakurada.Reset.Part.I.2017.1080p.BrRip.DTS.x264.One2loadup.com
Writing library : x264 core 130 r2273 b3065e6
Encoding settings : cabac=1 / ref=3 / deblock=1:0:0 / analyse=0x3:0x113 / me=umh / subme=11 / psy=1 / psy_rd=1.00:0.00 / mixed_ref=1 / me_range=48 / chroma_me=1 / trellis=2 / 8x8dct=1 / cqm=0 / deadzone=21,11 / fast_pskip=1 / chroma_qp_offset=-2 / threads=10 / lookahead_threads=1 / sliced_threads=0 / nr=0 / decimate=1 / interlaced=0 / bluray_compat=0 / constrained_intra=0 / bframes=3 / b_pyramid=2 / b_adapt=1 / b_bias=0 / direct=1 / weightb=1 / open_gop=0 / weightp=2 / keyint=240 / keyint_min=24 / scenecut=40 / intra_refresh=0 / rc_lookahead=40 / rc=2pass / mbtree=1 / bitrate=4114 / ratetol=1.0 / qcomp=0.60 / qpmin=0 / qpmax=69 / qpstep=4 / cplxblur=20.0 / qblur=0.5 / ip_ratio=1.40 / aq=1:1.00
Language : Japanese
Default : Yes
Forced : No
Color range : Limited
Color primaries : BT.709
Transfer characteristics : BT.709
Matrix coefficients : BT.709

Audio #1
ID : 2
Format : AC-3
Format/Info : Audio Coding 3
Codec ID : A_AC3
Duration : 1 h 43 min
Bit rate mode : Constant
Bit rate : 448 kb/s
Channel(s) : 6 channels
Channel positions : Front: L C R, Side: L R, LFE
Sampling rate : 48.0 kHz
Frame rate : 31.250 FPS (1536 SPF)
Bit depth : 16 bits
Compression mode : Lossy
Stream size : 330 MiB (8%)
Title : Thai DVD Master
Language : Thai
Service kind : Complete Main
Default : Yes
Forced : Yes

Audio #2
ID : 3
Format : DTS
Format/Info : Digital Theater Systems
Codec ID : A_DTS
Duration : 1 h 43 min
Bit rate mode : Constant
Bit rate : 755 kb/s
Channel(s) : 6 channels
Channel positions : Front: L C R, Side: L R, LFE
Sampling rate : 48.0 kHz
Frame rate : 93.750 FPS (512 SPF)
Bit depth : 24 bits
Compression mode : Lossy
Stream size : 556 MiB (14%)
Title : Japanese DTS
Language : Japanese
Default : No
Forced : No

Text #1
ID : 4
Format : VobSub
Codec ID : S_VOBSUB
Codec ID/Info : Picture based subtitle format used on DVDs
Title : Thai 480p From DVD Master
Language : Thai
Default : No
Forced : No

Text #2
ID : 5
Format : VobSub
Codec ID : S_VOBSUB
Codec ID/Info : Picture based subtitle format used on DVDs
Title : Thai 720p
Language : Thai
Default : No
Forced : No

Text #3
ID : 6
Format : VobSub
Codec ID : S_VOBSUB
Codec ID/Info : Picture based subtitle format used on DVDs
Title : Thai 1080p
Language : Thai
Default : Yes
Forced : Yes

Text #4
ID : 7
Format : VobSub
Codec ID : S_VOBSUB
Codec ID/Info : Picture based subtitle format used on DVDs
Title : Thai 1080p Yellow
Language : Thai
Default : No
Forced : No

Text #5
ID : 8
Format : VobSub
Codec ID : S_VOBSUB
Codec ID/Info : Picture based subtitle format used on DVDs
Title : Thai 1080p BIG
Language : Thai
Default : No
Forced : No

Text #6
ID : 9
Format : PGS
Codec ID : S_HDMV/PGS
Codec ID/Info : Picture based subtitle format used on BDs/HD-DVDs
Title : Thai PGS
Language : Thai
Default : No
Forced : No

Text #7
ID : 10
Format : PGS
Codec ID : S_HDMV/PGS
Codec ID/Info : Picture based subtitle format used on BDs/HD-DVDs
Title : Thai PGS Yellow
Language : Thai
Default : No
Forced : No

Text #8
ID : 11
Format : VobSub
Codec ID : S_VOBSUB
Codec ID/Info : Picture based subtitle format used on DVDs
Title : English
Language : English
Default : No
Forced : No

Menu
00:00:00.000 : en:Chapter 1
00:10:16.907 : en:Chapter 2
00:19:46.602 : en:Chapter 3
00:31:51.993 : en:Chapter 4
00:40:47.027 : en:Chapter 5
00:48:22.941 : en:Chapter 6
00:56:10.033 : en:Chapter 7
01:03:04.572 : en:Chapter 8
01:10:37.232 : en:Chapter 9
01:17:51.958 : en:Chapter 10
01:26:59.797 : en:Chapter 11
01:38:37.369 : en:Chapter 12

DOWNLOAD


PART01 |||| PART02 |||| PART03 |||| PART04

PART01 |||| PART02 |||| PART03 |||| PART04

PART01 |||| PART02 |||| PART03 |||| PART04

PART01 |||| PART02 |||| PART03 |||| PART04


Leave A Reply

Your email address will not be published.

%d bloggers like this: