โหลดหนัง HD MINI-HD SUPER-HQ Full-HD 1080p VIP Master Zoom ซูม หนังใหม่ ออนไลน์ มาสเตอร์ ไทย จีน ฝรั่ง การ์ตูน

[MINI Super-HQ] RoboCop 4 (2014) โรโบคอป ภาค 4 [1080p] [พากย์ไทย 5.1 + เสียงอังกฤษ DTS] [บรรยายไทย + อังกฤษ] [เสียงไทย + ซับไทย]

0

RoboCop 4 (2014) โรโบคอป ภาค 4

โหลดหนัง  RoboCop 4 (2014) โรโบคอป ภาค 4

เรื่องย่อ RoboCop 4 (2014) โรโบคอป ภาค 4

โรโบคอป (RoboCop) ในฉบับใหม่ล่าสุดนี้ เป็นการปัดฝุ่นหนังแอ็คชั่นยุค 80’s มาเล่าใหม่ ผ่านตัวเอก อเล็กซ์ เมอร์ฟีย์ (โจแอล คินนาแมน) ตำรวจผู้รักและซื่อสัตย์ต่ออาชีพของตัวเอง ซึ่งทำหน้าที่อย่างเต็มความสามารถในการปราบอาชญากรรม และคอรัปชั่นในเมืองดีทรอยท์รวมถึงเป็นพ่อและสามีที่ดีให้ครอบครัวมาโดยตลอด จนวันหนึ่งได้เกิดอุบัติเหตุครั้งใหญ่ระหว่างการปฏิบ ัติหน้าที่ ออมนิคอร์ป บริษัทเทคโนโลยีหุ่นยนต์เพื่อการป้องกันชั้นนำของโลก มองเห็นโอกาสในการสร้างตำรวจที่สมบูรณ์แบบ นั่นคือหุ่นยนต์ที่สามารถชำระล้างเมืองแห่งนี้โดยไม่ทำให้ชีวิตของตำรวจต้องตกอยู่ในอันตราย จึงถือโอกาสดัดแปลงร่างกายของเขาเพื่อช่วยชีวิตด้วยก ารใช้เทคโนโลยีสุดล้ำในการสร้างมนุษย์ครึ่งเครื่องจักรคนแรกขึ้นมา เพื่อปฏิบัติภารกิจต่อสู้กับอาชญากรทั้งหลายในนาม โรโบคอป หลังจากนั้น อเล็กซ์ฟื้นขึ้นมาในโรงพยาบาลด้วยสภาพร่างกายที่เป็นเครื่องจักรเกือบทั้งหมด และแทบไม่มีความเป็นมนุษย์หลงเหลืออยู่เลย แต่เขาก็ยังคงความเป็นตำรวจไว้อย่างเต็มเปี่ยม
การถูกเปลี่ยนแปลงในครั้งนี้ ทำให้อเล็กซ์ต้องแบกรับความรับผิดชอบที่ยิ่งใหญ่ขึ้น อย่างที่เขาไม่เคยคาดฝันมาก่อนเลยทีเดียวเขาได้กลับสู่ภารกิจการปราบปรามผู้ร้ายอีกครั้ง พร้อมด้วยกลไกและอาวุธไฮเทคครบครัน แต่นั่นก็ยิ่งทำให้เขาต้องพบกับปัญหาใหม่ที่ผู้คนทั่วไปไม่เคยพบเจอ!!!

Complete name : [MINI Super-HQ]_RoboCop.2014.1080p.BrRip.DTS.x264.One2loadup.com.mkv
Format : Matroska
Format version : Version 4 / Version 2
File size : 3.95 GiB
Duration : 1 h 57 min
Overall bit rate : 4 808 kb/s
Movie name : [MINI Super-HQ]_RoboCop.2014.1080p.BrRip.DTS.x264.One2loadup.com
Encoded date : UTC 2010-02-22 21:41:31
Writing application : mkvmerge v5.9.0 (‘On The Loose’) built on Dec 9 2012 15:37:01
Writing library : libebml v1.3.0 + libmatroska v1.4.0

Video
ID : 1
Format : AVC
Format/Info : Advanced Video Codec
Format profile : [email protected]
Format settings : CABAC / 4 Ref Frames
Format settings, CABAC : Yes
Format settings, ReFrames : 4 frames
Codec ID : V_MPEG4/ISO/AVC
Duration : 1 h 57 min
Bit rate : 3 509 kb/s
Width : 1 920 pixels
Height : 800 pixels
Display aspect ratio : 2.40:1
Frame rate mode : Constant
Frame rate : 23.810 FPS
Color space : YUV
Chroma subsampling : 4:2:0
Bit depth : 8 bits
Scan type : Progressive
Bits/(Pixel*Frame) : 0.096
Stream size : 2.88 GiB (73%)
Title : [MINI Super-HQ]_RoboCop.2014.1080p.BrRip.DTS.x264.One2loadup.com
Writing library : x264 core 130 r2273 b3065e6
Encoding settings : cabac=1 / ref=3 / deblock=1:0:0 / analyse=0x3:0x113 / me=umh / subme=10 / psy=1 / psy_rd=1.00:0.00 / mixed_ref=1 / me_range=24 / chroma_me=1 / trellis=2 / 8x8dct=1 / cqm=0 / deadzone=21,11 / fast_pskip=1 / chroma_qp_offset=-2 / threads=12 / lookahead_threads=1 / sliced_threads=0 / nr=0 / decimate=1 / interlaced=0 / bluray_compat=0 / constrained_intra=0 / bframes=3 / b_pyramid=2 / b_adapt=1 / b_bias=0 / direct=1 / weightb=1 / open_gop=0 / weightp=2 / keyint=240 / keyint_min=24 / scenecut=40 / intra_refresh=0 / rc_lookahead=40 / rc=2pass / mbtree=1 / bitrate=3509 / ratetol=1.0 / qcomp=0.60 / qpmin=0 / qpmax=69 / qpstep=4 / cplxblur=20.0 / qblur=0.5 / ip_ratio=1.40 / aq=1:1.00
Language : English
Default : Yes
Forced : No
Color range : Limited
Color primaries : BT.709
Transfer characteristics : BT.709
Matrix coefficients : BT.709

Audio #1
ID : 2
Format : AC-3
Format/Info : Audio Coding 3
Codec ID : A_AC3
Duration : 1 h 57 min
Bit rate mode : Constant
Bit rate : 448 kb/s
Channel(s) : 6 channels
Channel positions : Front: L C R, Side: L R, LFE
Sampling rate : 48.0 kHz
Frame rate : 31.250 FPS (1536 SPF)
Bit depth : 16 bits
Compression mode : Lossy
Stream size : 376 MiB (9%)
Title : Thai BluRay Master
Language : Thai
Service kind : Complete Main
Default : Yes
Forced : Yes

Audio #2
ID : 3
Format : DTS
Format/Info : Digital Theater Systems
Codec ID : A_DTS
Duration : 1 h 57 min
Bit rate mode : Constant
Bit rate : 755 kb/s
Channel(s) : 6 channels
Channel positions : Front: L C R, Side: L R, LFE
Sampling rate : 48.0 kHz
Frame rate : 93.750 FPS (512 SPF)
Bit depth : 24 bits
Compression mode : Lossy
Stream size : 634 MiB (16%)
Title : English DTS
Language : English
Default : No
Forced : No

Text #1
ID : 4
Format : VobSub
Codec ID : S_VOBSUB
Codec ID/Info : Picture based subtitle format used on DVDs
Title : The 480p From BluRay Master
Language : Thai
Default : No
Forced : No

Text #2
ID : 5
Format : VobSub
Codec ID : S_VOBSUB
Codec ID/Info : Picture based subtitle format used on DVDs
Title : Thai 720p
Language : Thai
Default : No
Forced : No

Text #3
ID : 6
Format : VobSub
Codec ID : S_VOBSUB
Codec ID/Info : Picture based subtitle format used on DVDs
Title : Thai 1080p BluRay Master
Language : Thai
Default : Yes
Forced : Yes

Text #4
ID : 7
Format : VobSub
Codec ID : S_VOBSUB
Codec ID/Info : Picture based subtitle format used on DVDs
Title : The 1080p Out
Language : Thai
Default : No
Forced : No

Text #5
ID : 8
Format : VobSub
Codec ID : S_VOBSUB
Codec ID/Info : Picture based subtitle format used on DVDs
Title : Thai 1080p BIG
Language : Thai
Default : No
Forced : No

Text #6
ID : 9
Format : VobSub
Codec ID : S_VOBSUB
Codec ID/Info : Picture based subtitle format used on DVDs
Title : Thai 1080p Out [BIG]
Language : Thai
Default : No
Forced : No

Text #7
ID : 10
Format : PGS
Codec ID : S_HDMV/PGS
Codec ID/Info : Picture based subtitle format used on BDs/HD-DVDs
Title : Thai PGS BluRay Master
Language : Thai
Default : No
Forced : No

Text #8
ID : 11
Format : PGS
Codec ID : S_HDMV/PGS
Codec ID/Info : Picture based subtitle format used on BDs/HD-DVDs
Title : Thai PGS BluRay Master [Out]
Language : Thai
Default : No
Forced : No

Text #9
ID : 12
Format : UTF-8
Codec ID : S_TEXT/UTF8
Codec ID/Info : UTF-8 Plain Text
Title : English
Language : English
Default : No
Forced : No

Menu
00:00:00.000 : en:00:00:00.000
00:04:33.899 : en:00:04:33.899
00:08:51.740 : en:00:08:51.740
00:14:33.915 : en:00:14:33.915
00:17:01.604 : en:00:17:01.604
00:19:27.041 : en:00:19:27.041
00:21:52.937 : en:00:21:52.937
00:26:13.572 : en:00:26:13.572
00:30:47.971 : en:00:30:47.971
00:32:48.675 : en:00:32:48.675
00:36:12.379 : en:00:36:12.379
00:39:06.970 : en:00:39:06.970
00:43:03.498 : en:00:43:03.498
00:45:40.655 : en:00:45:40.655
00:52:10.377 : en:00:52:10.377
00:57:21.188 : en:00:57:21.188
01:01:23.889 : en:01:01:23.889
01:02:59.901 : en:01:02:59.901
01:06:05.920 : en:01:06:05.920
01:10:30.476 : en:01:10:30.476
01:13:26.527 : en:01:13:26.527
01:18:24.867 : en:01:18:24.867
01:21:56.203 : en:01:21:56.203
01:26:04.993 : en:01:26:04.993
01:28:06.907 : en:01:28:06.907
01:32:02.976 : en:01:32:02.976
01:35:52.956 : en:01:35:52.956
01:38:30.655 : en:01:38:30.655
01:41:30.751 : en:01:41:30.751
01:43:44.635 : en:01:43:44.635
01:46:41.562 : en:01:46:41.562
01:50:12.689 : en:01:50:12.689

DOWNLOAD


PART01 |||| PART02 |||| PART03 |||| PART04

PART01 |||| PART02 |||| PART03 |||| PART04

PART01 |||| PART02 |||| PART03 |||| PART04

PART01 |||| PART02 |||| PART03 |||| PART04


Leave A Reply

Your email address will not be published.

%d bloggers like this: