เว็บโหลดหนัง HD MINI-HD SUPER-HQ Full-HD 1080p One2up VIP Master Zoom ซูม หนังใหม่ ออนไลน์ มาสเตอร์ ไทย จีน ฝรั่ง การ์ตูน

[MINI Super-HQ] RoboCop (1987) โรโบคอป ภาค 1 [1080p] [พากย์ไทย 5.1 + เสียงอังกฤษ 5.1] [บรรยายไทย + อังกฤษ] [เสียงไทย + ซับไทย]

0

โหลดหนัง RoboCop (1987) โรโบคอป ภาค 1 

เรื่องย่อ RoboCop (1987) โรโบคอป ภาค 1

ผลงานแจ้งเกิดชิ้นเยี่ยมของผู้กำกับ Paul Verhoeven กับเรื่องราวของ อเล็กซ์ เมอร์ฟี่ย์ (Peter Weller) นายตำรวจที่ถูกฆ่าอย่างโหดเหี้ยมโดยเหล่าร้ายที่นำโดยจอมอาชญากรของเมืองที่ ชื่อว่า แคลเรนซ์ บ็อดดีคเกอร์ (Kurtwood Smith) แม้เขาจะเสียชีวิตไป แต่เขาก็โดนจับไปทดลอง โดยทางบริษัทที่ชื่อว่า OCP ได้มีโปรเจคท์จะทำหุ่นยนต์ปราบอธรรมขึ้นมา แล้วก็ใช้ร่างกายของอเล็กซ์นี่แหละในที่สุด เขาก็กลายมาเป็นตำรวจเหล็ก นามโรโบคอป

Complete name : [MINI Super-HQ]_RoboCop.1987.Director’s.Cut.1080p.BluRay.x264.One2loadup.com.mkv
Format : Matroska
Format version : Version 4 / Version 2
File size : 4.35 GiB
Duration : 1 h 43 min
Overall bit rate : 6 036 kb/s
Movie name : [MINI Super-HQ]_RoboCop.1987.Director’s.Cut.1080p.BluRay.x264.One2loadup.com
Encoded date : UTC 2010-02-22 21:41:31
Writing application : mkvmerge v5.9.0 (‘On The Loose’) built on Dec 9 2012 15:37:01
Writing library : libebml v1.3.0 + libmatroska v1.4.0

Video
ID : 1
Format : AVC
Format/Info : Advanced Video Codec
Format profile : [email protected]
Format settings : CABAC / 4 Ref Frames
Format settings, CABAC : Yes
Format settings, ReFrames : 4 frames
Codec ID : V_MPEG4/ISO/AVC
Duration : 1 h 43 min
Bit rate : 4 894 kb/s
Width : 1 920 pixels
Height : 1 040 pixels
Display aspect ratio : 1.85:1
Frame rate mode : Constant
Frame rate : 23.976 (24000/1001) FPS
Color space : YUV
Chroma subsampling : 4:2:0
Bit depth : 8 bits
Scan type : Progressive
Bits/(Pixel*Frame) : 0.102
Stream size : 3.48 GiB (80%)
Writing library : x264 core 148 r2694 3b70645
Encoding settings : cabac=1 / ref=4 / deblock=1:-1:-1 / analyse=0x3:0x133 / me=umh / subme=11 / psy=1 / psy_rd=1.00:0.25 / mixed_ref=1 / me_range=32 / chroma_me=1 / trellis=2 / 8x8dct=1 / cqm=0 / deadzone=21,11 / fast_pskip=0 / chroma_qp_offset=-4 / threads=12 / lookahead_threads=1 / sliced_threads=0 / nr=0 / decimate=1 / interlaced=0 / bluray_compat=0 / constrained_intra=0 / bframes=4 / b_pyramid=2 / b_adapt=2 / b_bias=0 / direct=3 / weightb=1 / open_gop=0 / weightp=2 / keyint=240 / keyint_min=23 / scenecut=40 / intra_refresh=0 / rc_lookahead=60 / rc=2pass / mbtree=1 / bitrate=4894 / ratetol=1.0 / qcomp=0.60 / qpmin=0 / qpmax=69 / qpstep=4 / cplxblur=20.0 / qblur=0.5 / ip_ratio=1.40 / aq=1:1.00
Language : English
Default : Yes
Forced : No

Audio #1
ID : 2
Format : AC-3
Format/Info : Audio Coding 3
Codec ID : A_AC3
Duration : 1 h 43 min
Bit rate mode : Constant
Bit rate : 640 kb/s
Channel(s) : 6 channels
Channel positions : Front: L C R, Side: L R, LFE
Sampling rate : 48.0 kHz
Frame rate : 31.250 FPS (1536 SPF)
Bit depth : 16 bits
Compression mode : Lossy
Stream size : 473 MiB (11%)
Language : English
Service kind : Complete Main
Default : Yes
Forced : Yes

Audio #2
ID : 3
Format : AC-3
Format/Info : Audio Coding 3
Codec ID : A_AC3
Duration : 1 h 43 min
Bit rate mode : Constant
Bit rate : 448 kb/s
Channel(s) : 6 channels
Channel positions : Front: L C R, Side: L R, LFE
Sampling rate : 48.0 kHz
Frame rate : 31.250 FPS (1536 SPF)
Bit depth : 16 bits
Compression mode : Lossy
Stream size : 331 MiB (7%)
Language : Thai
Service kind : Complete Main
Default : No
Forced : No

Text #1
ID : 4
Format : VobSub
Codec ID : S_VOBSUB
Codec ID/Info : Picture based subtitle format used on DVDs
Language : Thai
Default : Yes
Forced : Yes

Text #2
ID : 5
Format : VobSub
Codec ID : S_VOBSUB
Codec ID/Info : Picture based subtitle format used on DVDs
Language : Thai
Default : No
Forced : No

Text #3
ID : 6
Format : PGS
Codec ID : S_HDMV/PGS
Codec ID/Info : Picture based subtitle format used on BDs/HD-DVDs
Language : Thai
Default : No
Forced : No

Text #4
ID : 7
Format : UTF-8
Codec ID : S_TEXT/UTF8
Codec ID/Info : UTF-8 Plain Text
Language : English
Default : No
Forced : No

Menu
00:00:00.000 : en:00:00:00.000
00:06:45.113 : en:00:06:45.113
00:14:07.555 : en:00:14:07.555
00:17:32.551 : en:00:17:32.551
00:26:40.516 : en:00:26:40.516
00:34:28.024 : en:00:34:28.024
00:40:32.805 : en:00:40:32.805
00:45:15.338 : en:00:45:15.338
00:49:46.650 : en:00:49:46.650
00:57:48.131 : en:00:57:48.131
01:01:41.239 : en:01:01:41.239
01:08:25.184 : en:01:08:25.184
01:15:59.889 : en:01:15:59.889
01:22:46.545 : en:01:22:46.545
01:33:53.962 : en:01:33:53.962
01:37:04.902 : en:01:37:04.902

DOWNLOAD


PART01 |||| PART02 |||| PART03 |||| PART04 |||| PART05

PART01 |||| PART02 |||| PART03 |||| PART04 |||| PART05

PART01 |||| PART02 |||| PART03 |||| PART04 |||| PART05

PART01 |||| PART02 |||| PART03 |||| PART04 |||| PART05


Leave A Reply

Your email address will not be published.

%d bloggers like this: