[MINI Super-HQ] Rio 2 (2014) ริโอ เจ้านกฟ้าจอมมึน ภาค 2 [1080p] [พากย์ไทย 5.1 + เสียงอังกฤษ DTS] [บรรยายไทย + อังกฤษ] [เสียงไทย + ซับไทย] [ONE2UP]

6

Rio 2 (2014)

โหลดหนัง  Rio 2 (2014) เจ้านกฟ้าจอมมึน ภาค 2

เรื่องย่อ Rio 2 (2014) เจ้านกฟ้าจอมมึน ภาค 2

กลับมาเรียกเสียงหัวเราะ และรอยยิ้มกันอีกแล้ว สำหรับแอนิเมชั่นสุดน่ารัก ที่ได้รับเสียงตอบรับอย่างล้นหลามมาแล้วในภาคแรก (2011) ล่าสุด 20th Century Fox ได้เผยความเคลื่อนไหวของแอนิเมชั่นเรื่องนี้ให้ได้ติดตามกัน โดยคลิปทีเซอร์ใหม่จาก Rio 2 มาให้ได้แฟน ๆ ที่รอคอยได้ดูระหว่างรอภาพยนตร์เรื่องนี้ฉายจริง โดยในภาคนี้ยังได้ผู้กำกับคนเดิมอย่าง คาร์ลอส ซัลดานน่า มาทำหน้าที่กำกับ และได้ดอน ไรห์เมอร์ ช่วยในการเขียนบท Rio 2 ด้วย นอกจากนี้ ยังได้นักแสดงชุดเดิมอย่าง แอนน์ แฮทธาเวย์, เลสลี่ แมนน์, เจมี่ ฟ็อกซ์, เจสซี่ ไอเซนเบิร์ก และ โรดริโก้ ซานโตโร กลับมาพากย์เสียงตัวละครในภาคนี้อีกด้วย

Rio 2 เป็นเรื่องราวของ บูล จิวเวล และลูกทั้งสามมีชีวิตที่สมบูรณ์แบบ ในเมืองที่มีมนตร์ขลัง ริโอเดอจาเนโร และเมื่อ จิวเวล ตัดสินใจให้ลูกทั้งสาม เรียนรู้ที่จะใช้ชีวิตผจญภัยอย่างอิสระเหมือนกับนก เธอก็ได้พาครอบครัวไปผจญภัยในอเมซอน ขณะที่บลูพยายามจะเข้ากับเพื่อนบ้านใหม่ของเขา เขาก็กังวลว่าอาจจะเสีย จิวเวล และลูก ๆ ไปกับความต้องการอยากอยู่กับธรรมชาตินั้น

Complete name : [MINI Super-HQ]_Rio.2.2014.1080p.BrRip.DTS.x264.One2loadup.com.mkv
Format : Matroska
Format version : Version 4
File size : 3.80 GiB
Duration : 1 h 41 min
Overall bit rate : 5 370 kb/s
Movie name : [MINI Super-HQ]_Rio.2.2014.1080p.BrRip.DTS.x264.One2loadup.com
Encoded date : UTC 2010-02-22 21:41:31
Writing application : mkvmerge v5.9.0 (‘On The Loose’) built on Dec 9 2012 15:37:01
Writing library : libebml v1.3.0 + libmatroska v1.4.0

Video
ID : 1
Format : AVC
Format/Info : Advanced Video Codec
Format profile : [email protected]
Format settings : CABAC / 4 Ref Frames
Format settings, CABAC : Yes
Format settings, ReFrames : 4 frames
Codec ID : V_MPEG4/ISO/AVC
Duration : 1 h 41 min
Bit rate : 4 044 kb/s
Width : 1 920 pixels
Height : 800 pixels
Display aspect ratio : 2.40:1
Frame rate mode : Constant
Frame rate : 23.976 (23976/1000) FPS
Color space : YUV
Chroma subsampling : 4:2:0
Bit depth : 8 bits
Scan type : Progressive
Bits/(Pixel*Frame) : 0.110
Stream size : 2.92 GiB (77%)
Title : [MINI Super-HQ]_Rio.2.2014.1080p.BrRip.DTS.x264.One2loadup.com
Writing library : x264 core 130 r2273 b3065e6
Encoding settings : cabac=1 / ref=4 / deblock=1:0:0 / analyse=0x3:0x113 / me=umh / subme=11 / psy=1 / psy_rd=1.00:0.00 / mixed_ref=1 / me_range=24 / chroma_me=1 / trellis=2 / 8x8dct=1 / cqm=0 / deadzone=21,11 / fast_pskip=1 / chroma_qp_offset=-2 / threads=12 / lookahead_threads=1 / sliced_threads=0 / nr=0 / decimate=1 / interlaced=0 / bluray_compat=0 / constrained_intra=0 / bframes=4 / b_pyramid=2 / b_adapt=2 / b_bias=0 / direct=1 / weightb=1 / open_gop=0 / weightp=2 / keyint=240 / keyint_min=24 / scenecut=40 / intra_refresh=0 / rc_lookahead=40 / rc=2pass / mbtree=1 / bitrate=4044 / ratetol=1.0 / qcomp=0.60 / qpmin=0 / qpmax=69 / qpstep=4 / cplxblur=20.0 / qblur=0.5 / ip_ratio=1.40 / aq=1:1.00
Language : English
Default : Yes
Forced : No
Color range : Limited
Color primaries : BT.709
Transfer characteristics : BT.709
Matrix coefficients : BT.709

Audio #1
ID : 2
Format : AC-3
Format/Info : Audio Coding 3
Commercial name : Dolby Digital
Codec ID : A_AC3
Duration : 1 h 41 min
Bit rate mode : Constant
Bit rate : 384 kb/s
Channel(s) : 6 channels
Channel layout : L R C LFE Ls Rs
Sampling rate : 48.0 kHz
Frame rate : 31.250 FPS (1536 SPF)
Bit depth : 16 bits
Compression mode : Lossy
Stream size : 278 MiB (7%)
Title : Thai DVD Master
Language : Thai
Service kind : Complete Main
Default : Yes
Forced : Yes

Audio #2
ID : 3
Format : DTS
Format/Info : Digital Theater Systems
Codec ID : A_DTS
Duration : 1 h 41 min
Bit rate mode : Constant
Bit rate : 755 kb/s
Channel(s) : 6 channels
Channel layout : C L R Ls Rs LFE
Sampling rate : 48.0 kHz
Frame rate : 93.750 FPS (512 SPF)
Bit depth : 24 bits
Compression mode : Lossy
Stream size : 546 MiB (14%)
Title : English DTS
Language : English
Default : No
Forced : No

Text #1
ID : 4
Format : VobSub
Codec ID : S_VOBSUB
Codec ID/Info : Picture based subtitle format used on DVDs
Title : Thai 480p DVD Master
Language : Thai
Default : No
Forced : No

Text #2
ID : 5
Format : VobSub
Codec ID : S_VOBSUB
Codec ID/Info : Picture based subtitle format used on DVDs
Title : Thai 720p
Language : Thai
Default : No
Forced : No

Text #3
ID : 6
Format : VobSub
Codec ID : S_VOBSUB
Codec ID/Info : Picture based subtitle format used on DVDs
Title : Thai 1080p
Language : Thai
Default : Yes
Forced : Yes

Text #4
ID : 7
Format : VobSub
Codec ID : S_VOBSUB
Codec ID/Info : Picture based subtitle format used on DVDs
Title : Thai 1080p Yellow
Language : Thai
Default : No
Forced : No

Text #5
ID : 8
Format : VobSub
Codec ID : S_VOBSUB
Codec ID/Info : Picture based subtitle format used on DVDs
Title : Thai 1080p Out
Language : Thai
Default : No
Forced : No

Text #6
ID : 9
Format : VobSub
Codec ID : S_VOBSUB
Codec ID/Info : Picture based subtitle format used on DVDs
Title : Thai 1080p BIG
Language : Thai
Default : No
Forced : No

Text #7
ID : 10
Format : VobSub
Codec ID : S_VOBSUB
Codec ID/Info : Picture based subtitle format used on DVDs
Title : Thai 1080p Out [BIG]
Language : Thai
Default : No
Forced : No

Text #8
ID : 11
Format : PGS
Codec ID : S_HDMV/PGS
Codec ID/Info : Picture based subtitle format used on BDs/HD-DVDs
Title : Thai PGS
Language : Thai
Default : No
Forced : No

Text #9
ID : 12
Format : PGS
Codec ID : S_HDMV/PGS
Codec ID/Info : Picture based subtitle format used on BDs/HD-DVDs
Title : Thai PGS Yellow
Language : Thai
Default : No
Forced : No

Text #10
ID : 13
Format : PGS
Codec ID : S_HDMV/PGS
Codec ID/Info : Picture based subtitle format used on BDs/HD-DVDs
Title : Thai PGS Out
Language : Thai
Default : No
Forced : No

Text #11
ID : 14
Format : UTF-8
Codec ID : S_TEXT/UTF8
Codec ID/Info : UTF-8 Plain Text
Title : English
Language : English
Default : No
Forced : No

Menu
00:00:00.000 : en:Chapter 1
00:03:10.982 : en:Chapter 2
00:05:14.480 : en:Chapter 3
00:08:49.445 : en:Chapter 4
00:13:02.323 : en:Chapter 5
00:17:36.388 : en:Chapter 6
00:19:19.616 : en:Chapter 7
00:22:30.432 : en:Chapter 8
00:26:48.773 : en:Chapter 9
00:29:00.238 : en:Chapter 10
00:30:59.774 : en:Chapter 11
00:33:46.649 : en:Chapter 12
00:36:34.275 : en:Chapter 13
00:39:20.316 : en:Chapter 14
00:41:32.740 : en:Chapter 15
00:45:05.202 : en:Chapter 16
00:47:23.173 : en:Chapter 17
00:49:58.245 : en:Chapter 18
00:52:05.539 : en:Chapter 19
00:55:39.002 : en:Chapter 20
00:58:10.987 : en:Chapter 21
01:02:11.477 : en:Chapter 22
01:04:38.166 : en:Chapter 23
01:07:04.020 : en:Chapter 24
01:09:18.279 : en:Chapter 25
01:10:21.425 : en:Chapter 26
01:15:17.846 : en:Chapter 27
01:17:00.240 : en:Chapter 28
01:21:41.938 : en:Chapter 29
01:25:24.702 : en:Chapter 30
01:29:42.794 : en:Chapter 31
01:32:28.084 : en:Chapter 32

DOWNLOAD


PART01 |||| PART02 |||| PART03 |||| PART04

PART01 |||| PART02 |||| PART03 |||| PART04

PART01 |||| PART02 |||| PART03 |||| PART04

PART01 |||| PART02 |||| PART03 |||| PART04


6 Comments
  1. Def says

    “Invalid SRT format. “025C8B30″ is invalid timing info”

    When converting DTS to AC3.

    Please fix them up.

    1. Admin
      Admin says

      Why you need to convert DTS to AC3?

      1. Def says

        My TV is not supported for DTS.

        Actually, I’ve done all your DTS-formatted movies, but not for this one.

        Thank you.

        1. Admin
          Admin says

          From testing the file encoding and converting to mp4 file, it can work normally. Example
          http: //openload.co/f/zI1wl-qzO3w/

          1. Def says

            Please provide “[พากย์ไทย 5.1 + เสียงอังกฤษ 5.1]” .

            Thank you

            Regards,

          2. Admin
            Admin says

            We have made an example. Did not make a new file We recommend using the program to Encode by yourself because we do not have a device for encoding large movie files.

Leave A Reply

Your email address will not be published.

%d bloggers like this: