เว็บโหลดหนัง HD MINI-HD SUPER-HQ Full-HD 1080p One2up VIP Master Zoom ซูม หนังใหม่ ออนไลน์ มาสเตอร์ ไทย จีน ฝรั่ง การ์ตูน

[MINI Super-HQ] Pirates of the Caribbean: The Curse of the Black Pearl (2003) คืนชีพกองทัพโจรสลัดสยองโลก ภาค 1 [1080P] [พากย์ไทย 5.1 + อังกฤษ 5.1] [บรรยายไทย + อังกฤษ] [Modified] [เสียงไทย + ซับไทย] [ONE2UP]

0

โหลดหนัง  Pirates of the Caribbean: The Curse of the Black Pearl (2003) คืนชีพกองทัพโจรสลัดสยองโลก ภาค 1

เรื่องย่อ Pirates of the Caribbean: The Curse of the Black Pearl (2003) คืนชีพกองทัพโจรสลัดสยองโลก ภาค 1

สำหรับกัปตันผู้แสนเจ้าเล่ห์แต่เสน่ห์ล้นอย่าง แจ็ค สแปร์โรว์ (จอห์นนี่ เด็ปป์) ผืนน้ำใสแจ๋วของทะเลแคริบเบียน ก็เป็นเช่นเดียวกับบรรดาทะเลหลวงทั้งหลายในโลก นั่นคือเปรียบเสมือนสนามเด็กเล่นกว้างใหญ่ไพศาลที่ซุกซ่อนไว้ซึ่งการผจญภัยและความลี้ลับ แต่ชีวิตโจรสลัดแสนสวยงามของแจ็คกลับพังครืนด้วยน้ำมือของศัตรูตัวร้ายอย่างกัปตันบาร์บอสซ่าจอมโกง (เจฟฟรี่ย์ รัช) ซึ่งขโมยเรือแบล็คเพิร์ลของเขา แถมยังโจมตีเมืองท่าพอร์ตรอยัลแล้วลักพาตัว เอลิซาเบ็ธ สวอนน์ (เคียร่า ไนท์ลี่ย์) ลูกสาวคนสวยของท่านผู้ว่าการรัฐ (โจนาธาน ไพรซ์) ไปอีกต่างหาก วิลล์ เทอร์เนอร์ (ออร์แลนโด้ บลูม) เพื่อนเก่าแก่ของเอลิซาเบธ เข้าผนึกกำลังกับแจ็คในการบังคับการเรือเร็วที่สุดแห่งกองทัพเรืออังกฤษคือ เรือหลวงอินเตอร์เซ็ปเตอร์ เพื่อบุกไปช่วยเธอและแย่งชิงแบล็คเพิร์ลคืนมา โดยมีผู้บังคับการนอร์ริงตัน (แจ็ค ดาเวนพอร์ต) คู่หมั้นหนุ่มทะเยอทะยานของเอลิซาเบ็ธ ควบเรือหลวงดอนท์เลสส์ ติดตามมาอย่างกระชั้นชิด แต่ วิลล์ หารู้ไม่ว่า บาร์บอสซ่า กับลูกเรือนั้นต้องคำสาปของสมบัติโบราณให้มีชีวิตเป็ นอมตะไม่มีวันตาย และเมื่อถูกแสงจันทร์อาบร่าง พวกมันจะกลายเป็นโครงกระดูกอันสุดน่าสะพรึงกลัว คำสาปนี้จะมลายหายไปก็ต่อเมื่อสมบัติ ซึ่งถูกขโมยไปนั้นได้รับการนำกลับไปคืน พร้อมการชำระหนี้ทดแทนด้วยเลือด! ท่ามกลางปัญหาลี้ลับเหล่านั้น อินเตอร์เซ็ปเตอร์กับดอนท์เลสส์ยังคงพุ่งทะยานอย่างรวดเร็วเข้าสู่การเผชิญหน้ากับโจรสลัดบาร์บอสซ่าบนเกาะไอล่าเดอเมอร์ต้าอันลึกลับ โดยเดิมพันทั้งด้วยความปรารถนาที่จะล้างแค้นของแจ็ค สแปร์โรว์ การชิงแบล็คเพิร์ล สมบัติต้องห้าม การทำลายคำสาปที่ทำให้บาร์บอสซ่าและลูกเรือมีชีวิตอม ตะด้วยการเป็นโครงกระดูก, ชะตากรรมของกองทัพเรืออังกฤษ และชีวิตของเหล่าฮีโร่ผู้กล้าหาญ เมื่อพวกเขาเงื้อดาบกระโจนเข้าสู่การฟาดฟันอันดุเดือดกับฝูงโจรสลัดปีศาจแห่งท้องทะเลแคริบเบียน!

Complete name : [MINI Super-HQ]_1.Pirates.of.the.Caribbean.Curse.of.the.Black.Pearl.2003.1080p.BrRip.x264.AC3.One2loadup.com.mkv
Format : Matroska
Format version : Version 4 / Version 2
File size : 3.23 GiB
Duration : 2 h 23 min
Overall bit rate : 3 232 kb/s
Movie name : [MINI Super-HQ]_1.Pirates.of.the.Caribbean.Curse.of.the.Black.Pearl.2003.1080p.BrRip.x264.AC3.One2loadup.com
Encoded date : UTC 2014-07-29 16:32:46
Writing application : mkvmerge v6.6.0 (‘The Edge Of The In Between’) built on Dec 1 2013 17:55:00
Writing library : libebml v1.3.0 + libmatroska v1.4.1

Video
ID : 1
Format : AVC
Format/Info : Advanced Video Codec
Format profile : [email protected]
Format settings : CABAC / 5 Ref Frames
Format settings, CABAC : Yes
Format settings, ReFrames : 5 frames
Codec ID : V_MPEG4/ISO/AVC
Duration : 2 h 23 min
Bit rate : 1 888 kb/s
Nominal bit rate : 2 039 kb/s
Width : 1 920 pixels
Height : 816 pixels
Display aspect ratio : 2.35:1
Frame rate mode : Constant
Frame rate : 23.976 (24000/1001) FPS
Color space : YUV
Chroma subsampling : 4:2:0
Bit depth : 8 bits
Scan type : Progressive
Bits/(Pixel*Frame) : 0.050
Stream size : 1.89 GiB (58%)
Title : [MINI Super-HQ]_1.Pirates.of.the.Caribbean.Curse.of.the.Black.Pearl.2003.1080p.BrRip.x264.AC3.One2loadup.com
Writing library : x264 core 129 r2245 bc13772
Encoding settings : cabac=1 / ref=5 / deblock=1:-1:-1 / analyse=0x3:0x133 / me=umh / subme=9 / psy=1 / psy_rd=1.00:0.15 / mixed_ref=1 / me_range=16 / chroma_me=1 / trellis=2 / 8x8dct=1 / cqm=0 / deadzone=21,11 / fast_pskip=1 / chroma_qp_offset=-3 / threads=12 / lookahead_threads=2 / sliced_threads=0 / nr=0 / decimate=1 / interlaced=0 / bluray_compat=0 / constrained_intra=0 / bframes=3 / b_pyramid=2 / b_adapt=2 / b_bias=0 / direct=3 / weightb=1 / open_gop=0 / weightp=2 / keyint=240 / keyint_min=23 / scenecut=40 / intra_refresh=0 / rc_lookahead=60 / rc=2pass / mbtree=1 / bitrate=2039 / ratetol=1.0 / qcomp=0.60 / qpmin=10 / qpmax=51 / qpstep=4 / cplxblur=20.0 / qblur=0.5 / ip_ratio=1.40 / aq=1:1.00
Default : Yes
Forced : No

Audio #1
ID : 2
Format : AC-3
Format/Info : Audio Coding 3
Codec ID : A_AC3
Duration : 2 h 23 min
Bit rate mode : Constant
Bit rate : 640 kb/s
Channel(s) : 6 channels
Channel positions : Front: L C R, Side: L R, LFE
Sampling rate : 48.0 kHz
Frame rate : 31.250 FPS (1536 SPF)
Bit depth : 16 bits
Compression mode : Lossy
Delay relative to video : 1 s 0 ms
Stream size : 656 MiB (20%)
Title : Thai AC3 640kbps
Language : Thai
Service kind : Complete Main
Default : Yes
Forced : Yes

Audio #2
ID : 3
Format : AC-3
Format/Info : Audio Coding 3
Codec ID : A_AC3
Duration : 2 h 23 min
Bit rate mode : Constant
Bit rate : 640 kb/s
Channel(s) : 6 channels
Channel positions : Front: L C R, Side: L R, LFE
Sampling rate : 48.0 kHz
Frame rate : 31.250 FPS (1536 SPF)
Bit depth : 16 bits
Compression mode : Lossy
Delay relative to video : 1 s 0 ms
Stream size : 656 MiB (20%)
Title : English AC3 640kbps
Language : English
Service kind : Complete Main
Default : No
Forced : No

Text #1
ID : 4
Format : VobSub
Muxing mode : zlib
Codec ID : S_VOBSUB
Codec ID/Info : Picture based subtitle format used on DVDs
Title : Thai From DVD Master
Language : Thai
Default : No
Forced : No

Text #2
ID : 5
Format : VobSub
Muxing mode : zlib
Codec ID : S_VOBSUB
Codec ID/Info : Picture based subtitle format used on DVDs
Title : Thai 480p
Language : Thai
Default : Yes
Forced : Yes
Statistics Tags Issue : mkvmerge v7.1.0 (‘Good Love’) 64bit built on Jul 27 2014 13:06:55 2014-07-28 03:22:04 / mkvmerge v6.6.0 (‘The Edge Of The In Between’) built on Dec 1 2013 17:55:00 2014-07-29 16:32:46
FromStats_BitRate : 1184
FromStats_Duration : 02:14:19.957983840
FromStats_FrameCount : 1571
FromStats_StreamSize : 1192928

Text #3
ID : 6
Format : VobSub
Muxing mode : zlib
Codec ID : S_VOBSUB
Codec ID/Info : Picture based subtitle format used on DVDs
Title : Thai 1080p
Language : Thai
Default : No
Forced : No

Text #4
ID : 7
Format : VobSub
Muxing mode : zlib
Codec ID : S_VOBSUB
Codec ID/Info : Picture based subtitle format used on DVDs
Title : Thai 1080p
Language : Thai
Default : No
Forced : No

Text #5
ID : 8
Format : PGS
Muxing mode : zlib
Codec ID : S_HDMV/PGS
Codec ID/Info : Picture based subtitle format used on BDs/HD-DVDs
Title : Thai PGS
Language : Thai
Default : No
Forced : No

Text #6
ID : 9
Format : VobSub
Muxing mode : zlib
Codec ID : S_VOBSUB
Codec ID/Info : Picture based subtitle format used on DVDs
Title : English 480p
Language : English
Default : No
Forced : No

Text #7
ID : 10
Format : VobSub
Muxing mode : zlib
Codec ID : S_VOBSUB
Codec ID/Info : Picture based subtitle format used on DVDs
Title : English 1080p
Language : English
Default : No
Forced : No

Text #8
ID : 11
Format : VobSub
Muxing mode : zlib
Codec ID : S_VOBSUB
Codec ID/Info : Picture based subtitle format used on DVDs
Title : English 1080p
Language : English
Default : No
Forced : No

Text #9
ID : 12
Format : PGS
Muxing mode : zlib
Codec ID : S_HDMV/PGS
Codec ID/Info : Picture based subtitle format used on BDs/HD-DVDs
Title : English PGS
Language : English
Default : No
Forced : No

Text #10
ID : 13
Format : UTF-8
Codec ID : S_TEXT/UTF8
Codec ID/Info : UTF-8 Plain Text
Title : English SRT
Language : English
Default : No
Forced : No

DOWNLOAD


PART01 |||| PART02 |||| PART03 |||| PART04

PART01 |||| PART02 |||| PART03 |||| PART04

PART01 |||| PART02 |||| PART03 |||| PART04

PART01 |||| PART02 |||| PART03 |||| PART04


Leave A Reply

Your email address will not be published.

%d bloggers like this: