[MINI Super-HQ] Percy Jackson & Sea of Monsters (2013) เพอร์ซีย์ แจ็กสัน กับ อาถรรพ์ทะเลปีศาจ ภาค 2 [1080p] [พากย์ไทย 5.1 + เสียงอังกฤษ DTS] [บรรยายไทย + อังกฤษ] [เสียงไทย + ซับไทย] [ONE2UP]

0

Percy Jackson & Sea of Monsters (2013) เพอร์ซีย์ แจ็กสัน กับ อาถรรพ์ทะเลปีศาจ ภาค 2

โหลดหนัง  Percy Jackson & Sea of Monsters (2013) เพอร์ซีย์ แจ็กสัน กับ อาถรรพ์ทะเลปีศาจ ภาค 2

เรื่องย่อ Percy Jackson & Sea of Monsters (2013) เพอร์ซีย์ แจ็กสัน กับ อาถรรพ์ทะเลปีศาจ ภาค 2

เพอร์ซีย์ แจ็กสัน กับ อาถรรพ์ทะเลปีศาจ เป็นภาพยนตร์ภาคที่ 2 ต่อเนื่องจาก เพอร์ซีย์ แจ็กสัน กับสายฟ้าที่หายไป ซึ่งเป็นเรื่องราวเกี่ยวกับการเดินทางของ เพอร์ซีย์ แจ็กสัน (โลแกน เลอร์แมน) ที่ยังคงดำเนินต่อไป พร้อม ๆ กับเพื่อนกึ่งเทพกึ่งมนุษย์ เพื่อจะเอาขนแกะทองคำที่มีพลังอำนาจวิเศษกลับไปช่วยเ หล่าครึ่งเทพและมนุษย์ทั้งหลายด้วยตัวเอง ซึ่งในการทำภารกิจให้สำเร็จ เพอร์ซี่ต้องเดินทางไปที่ดินแดนเร้นลับที่รู้จักกันใ นนาม Sea of Monsters เพื่อเอาขนแกะทองคำมาและในภาคนี้มีตัวละครเพิ่มมาอีกหนึ่ง ได้แก่ คลาริส ลา ริว ลูกสาวของเทพแห่งสงครามแอรีส และ ไทสัน ยักษ์ตาเดียว โดยเพอร์ซี่จะมาค้นพบความจริงทีหลังว่า ไทสัน คือน้องชายต่างมารดา ที่เป็นลูกของเทพเจ้าโพไซดอนกับนางไม้ และนอกจากลูก ๆ ของเหล่าเทพแล้ว ยังมีเทพเจ้ากรีกที่เราคุ้นเคยกันดีอย่าง เฮอร์เมส เทพเจ้าส่งสาส์น รวมทั้งไดโอนีซุส เทพเจ้าแห่งไวน์ปรากฏตัวขึ้นด้วยเช่นกัน!!!

Complete name : [MINI Super-HQ]_Percy.Jackson.And.Sea.of.Monsters.2013.1080p.BrRip.DTS.x264.One2loadup.com.mkv
Format : Matroska
Format version : Version 4
File size : 4.06 GiB
Duration : 1 h 46 min
Overall bit rate mode : Variable
Overall bit rate : 5 478 kb/s
Movie name : [MINI Super-HQ]_Percy.Jackson.And.Sea.of.Monsters.2013.1080p.BrRip.DTS.x264.One2loadup.com
Encoded date : UTC 2015-06-25 05:56:51
Writing application : mkvmerge v7.8.0 (‘River Man’) 32bit built on Mar 27 2015 16:18:02
Writing library : libebml v1.3.1 + libmatroska v1.4.2
Cover : Yes
Attachments : cover_land.png / cover.png

Video
ID : 1
Format : AVC
Format/Info : Advanced Video Codec
Format profile : [email protected]
Format settings : CABAC / 5 Ref Frames
Format settings, CABAC : Yes
Format settings, ReFrames : 5 frames
Codec ID : V_MPEG4/ISO/AVC
Duration : 1 h 46 min
Bit rate mode : Variable
Bit rate : 4 100 kb/s
Maximum bit rate : 100.0 Mb/s
Width : 1 920 pixels
Height : 816 pixels
Display aspect ratio : 2.35:1
Frame rate mode : Constant
Frame rate : 23.976 FPS
Color space : YUV
Chroma subsampling : 4:2:0
Bit depth : 8 bits
Scan type : Progressive
Bits/(Pixel*Frame) : 0.109
Stream size : 3.09 GiB (76%)
Title : [MINI Super-HQ]_Percy.Jackson.And.Sea.of.Monsters.2013.1080p.BrRip.DTS.x264.One2loadup.com
Writing library : x264 core 125 r2200 999b753
Encoding settings : cabac=1 / ref=5 / deblock=1:0:0 / analyse=0x3:0x113 / me=umh / subme=10 / psy=1 / psy_rd=1.00:0.15 / mixed_ref=1 / me_range=24 / chroma_me=1 / trellis=2 / 8x8dct=1 / cqm=0 / deadzone=21,11 / fast_pskip=1 / chroma_qp_offset=-3 / threads=6 / lookahead_threads=1 / sliced_threads=0 / nr=0 / decimate=1 / interlaced=0 / bluray_compat=0 / constrained_intra=0 / bframes=8 / b_pyramid=2 / b_adapt=2 / b_bias=0 / direct=3 / weightb=1 / open_gop=0 / weightp=2 / keyint=250 / keyint_min=24 / scenecut=40 / intra_refresh=0 / rc_lookahead=60 / rc=2pass / mbtree=1 / bitrate=4100 / ratetol=1.0 / qcomp=0.60 / qpmin=0 / qpmax=69 / qpstep=4 / cplxblur=20.0 / qblur=0.5 / vbv_maxrate=99999 / vbv_bufsize=99999 / nal_hrd=vbr / ip_ratio=1.40 / aq=1:1.00
Language : English
Default : Yes
Forced : No

Audio #1
ID : 2
Format : AC-3
Format/Info : Audio Coding 3
Commercial name : Dolby Digital
Codec ID : A_AC3
Duration : 1 h 46 min
Bit rate mode : Constant
Bit rate : 448 kb/s
Channel(s) : 6 channels
Channel layout : L R C LFE Ls Rs
Sampling rate : 48.0 kHz
Frame rate : 31.250 FPS (1536 SPF)
Bit depth : 16 bits
Compression mode : Lossy
Stream size : 340 MiB (8%)
Title : AC3 BD MASTER
Language : Thai
Service kind : Complete Main
Default : Yes
Forced : No

Audio #2
ID : 3
Format : DTS
Format/Info : Digital Theater Systems
Codec ID : A_DTS
Duration : 1 h 46 min
Bit rate mode : Constant
Bit rate : 755 kb/s
Channel(s) : 6 channels
Channel layout : C L R Ls Rs LFE
Sampling rate : 48.0 kHz
Frame rate : 93.750 FPS (512 SPF)
Bit depth : 24 bits
Compression mode : Lossy
Stream size : 573 MiB (14%)
Title : DTS
Language : English
Default : No
Forced : No

Text #1
ID : 4
Format : VobSub
Codec ID : S_VOBSUB
Codec ID/Info : Picture based subtitle format used on DVDs
Title : 1080P TSA
Language : Thai
Default : Yes
Forced : Yes

Text #2
ID : 5
Format : VobSub
Codec ID : S_VOBSUB
Codec ID/Info : Picture based subtitle format used on DVDs
Title : 1080P TSA YELLOW
Language : Thai
Default : No
Forced : No

Text #3
ID : 6
Format : VobSub
Codec ID : S_VOBSUB
Codec ID/Info : Picture based subtitle format used on DVDs
Title : 1080P TSA UNDER
Language : Thai
Default : No
Forced : No

Text #4
ID : 7
Format : VobSub
Codec ID : S_VOBSUB
Codec ID/Info : Picture based subtitle format used on DVDs
Title : 1080P AS
Language : Thai
Default : No
Forced : No

Text #5
ID : 8
Format : VobSub
Codec ID : S_VOBSUB
Codec ID/Info : Picture based subtitle format used on DVDs
Title : 1080P BD MASTER
Language : Thai
Default : No
Forced : No

Text #6
ID : 9
Format : VobSub
Codec ID : S_VOBSUB
Codec ID/Info : Picture based subtitle format used on DVDs
Title : 480P BD
Language : Thai
Default : No
Forced : No

Text #7
ID : 10
Format : UTF-8
Codec ID : S_TEXT/UTF8
Codec ID/Info : UTF-8 Plain Text
Title : SRT OCR
Language : Thai
Default : No
Forced : No

Text #8
ID : 11
Format : UTF-8
Codec ID : S_TEXT/UTF8
Codec ID/Info : UTF-8 Plain Text
Title : SRT
Language : English
Default : No
Forced : No

Text #9
ID : 12
Format : PGS
Codec ID : S_HDMV/PGS
Codec ID/Info : Picture based subtitle format used on BDs/HD-DVDs
Title : TSA
Language : Thai
Default : No
Forced : No

Text #10
ID : 13
Format : PGS
Codec ID : S_HDMV/PGS
Codec ID/Info : Picture based subtitle format used on BDs/HD-DVDs
Title : AS
Language : Thai
Default : No
Forced : No

Text #11
ID : 14
Format : PGS
Codec ID : S_HDMV/PGS
Codec ID/Info : Picture based subtitle format used on BDs/HD-DVDs
Title : BD MASTER
Language : Thai
Default : No
Forced : No

Text #12
ID : 15
Format : PGS
Codec ID : S_HDMV/PGS
Codec ID/Info : Picture based subtitle format used on BDs/HD-DVDs
Title : BD UNDER
Language : Thai
Default : No
Forced : No

DOWNLOAD


PART01 |||| PART02 |||| PART03 |||| PART04 |||| PART05

PART01 |||| PART02 |||| PART03 |||| PART04 |||| PART05

PART01 |||| PART02 |||| PART03 |||| PART04 |||| PART05

PART01 |||| PART02 |||| PART03 |||| PART04 |||| PART05


Leave A Reply

Your email address will not be published.

%d bloggers like this: