[MINI Super-HQ] Over The Top (1987) พ่อครับ อย่ายอมแพ้ [1080p] [พากย์ไทย 5.1+ เสียงอังกฤษ 5.1] [บรรยายไทย + อังกฤษ] [เสียงไทย + ซับไทย] [OPENLOAD]

0

โหลดหนัง Over The Top (1987) พ่อครับ อย่ายอมแพ้

(1987) 1h 33min | Action, Drama, Sport | 13 February 1987 (USA) Summary: Tough trucker Lincoln Hawk is determined to win back his son and triumph at the world arm wrestling championships.
Countries: USALanguages: English

เรื่องย่อ Over The Top (1987) พ่อครับ อย่ายอมแพ้

Sylvester Stallone กับหนังแนวชีวิตปนแอ๊คชั่นอีกครั้งครับ คราวนี้เขารับบทเป็นลินคอร์น ฮอว์ค สิงห์รถบรรทุกที่ต้องการจะผูกสัมพันธ์กับลูกที่ห่างเหินของเขา ไมเคิล คัตเลอร์ (David Mendenhall) ช่วงแรกก็ทุลักทุเลอยู่แต่ซักพักพ่อลูกก็เริ่มเข้าใจกัน แต่ทว่าเจสัน คัตเลอร์ (Robert Loggia) ตาของไมเคิลเกิดไม่เห็นดีด้วย เลยมีการลงมือขัดขวางทุกวิถีทางครับ เอาล่ะสิ แล้วมันจะเป็นอย่างไรต่อไปกันล่ะ

Complete name : [MINI Super-HQ]_Over.The.Top.1987.1080p.BrRip.AC3.x264.One2loadup.com.mkv
Format : Matroska
Format version : Version 2
File size : 3.16 GiB
Duration : 1 h 33 min
Overall bit rate mode : Variable
Overall bit rate : 4 840 kb/s
Movie name : [MINI Super-HQ]_Over.The.Top.1987.1080p.BrRip.AC3.x264.One2loadup.com
Encoded date : UTC 2019-04-23 07:53:35
Writing application : MakeMKV v1.12.3 darwin(x64-release)
Writing library : libmakemkv v1.12.3 (1.3.5/1.4.7) darwin(x64-release)

Video
ID : 1
Format : AVC
Format/Info : Advanced Video Codec
Format profile : [email protected]
Format settings : CABAC / 5 Ref Frames
Format settings, CABAC : Yes
Format settings, ReFrames : 5 frames
Codec ID : V_MPEG4/ISO/AVC
Duration : 1 h 33 min
Bit rate mode : Variable
Bit rate : 3 701 kb/s
Maximum bit rate : 20.0 Mb/s
Width : 1 920 pixels
Height : 800 pixels
Display aspect ratio : 2.40:1
Frame rate mode : Constant
Frame rate : 23.976 (24000/1001) FPS
Color space : YUV
Chroma subsampling : 4:2:0
Bit depth : 8 bits
Scan type : Progressive
Bits/(Pixel*Frame) : 0.100
Stream size : 2.42 GiB (76%)
Title : [MINI Super-HQ]_Over.The.Top.1987.1080p.BrRip.AC3.x264.One2loadup.com
Writing library : x264 core 130 r2273 b3065e6
Encoding settings : cabac=1 / ref=5 / deblock=1:-3:-3 / analyse=0x3:0x133 / me=umh / subme=10 / psy=1 / psy_rd=1.00:0.00 / mixed_ref=1 / me_range=16 / chroma_me=1 / trellis=2 / 8x8dct=1 / cqm=0 / deadzone=21,11 / fast_pskip=1 / chroma_qp_offset=-2 / threads=6 / lookahead_threads=1 / sliced_threads=0 / nr=0 / decimate=1 / interlaced=0 / bluray_compat=0 / constrained_intra=0 / bframes=3 / b_pyramid=0 / b_adapt=1 / b_bias=0 / direct=1 / weightb=1 / open_gop=0 / weightp=2 / keyint=240 / keyint_min=24 / scenecut=40 / intra_refresh=0 / rc_lookahead=40 / rc=2pass / mbtree=1 / bitrate=3701 / ratetol=1.0 / qcomp=0.60 / qpmin=0 / qpmax=69 / qpstep=4 / cplxblur=20.0 / qblur=0.5 / vbv_maxrate=20000 / vbv_bufsize=20000 / nal_hrd=vbr / ip_ratio=1.40 / aq=1:1.00
Language : English
Default : No
Forced : No

Audio #1
ID : 2
Format : AC-3
Format/Info : Audio Coding 3
Commercial name : Dolby Digital
Codec ID : A_AC3
Duration : 1 h 33 min
Bit rate mode : Constant
Bit rate : 640 kb/s
Channel(s) : 6 channels
Channel layout : L R C LFE Ls Rs
Sampling rate : 48.0 kHz
Frame rate : 31.250 FPS (1536 SPF)
Bit depth : 16 bits
Compression mode : Lossy
Stream size : 428 MiB (13%)
Title : ENG AC3 5.1
Language : English
Service kind : Complete Main
Default : Yes
Forced : No

Audio #2
ID : 3
Format : AC-3
Format/Info : Audio Coding 3
Commercial name : Dolby Digital
Codec ID : A_AC3
Duration : 1 h 30 min
Bit rate mode : Constant
Bit rate : 384 kb/s
Channel(s) : 6 channels
Channel layout : L R C LFE Ls Rs
Sampling rate : 48.0 kHz
Frame rate : 31.250 FPS (1536 SPF)
Bit depth : 16 bits
Compression mode : Lossy
Stream size : 249 MiB (8%)
Title : THAI AC3 5.1 DVD MASTER
Language : Thai
Service kind : Complete Main
Default : No
Forced : No

Text #1
ID : 4
Format : VobSub
Codec ID : S_VOBSUB
Codec ID/Info : Picture based subtitle format used on DVDs
Duration : 1 h 31 min
Bit rate : 10.5 kb/s
Count of elements : 1160
Stream size : 6.87 MiB (0%)
Title : ENG 1080p
Language : English
Default : Yes
Forced : No

Text #2
ID : 5
Format : VobSub
Codec ID : S_VOBSUB
Codec ID/Info : Picture based subtitle format used on DVDs
Duration : 1 h 25 min
Bit rate : 5 794 b/s
Count of elements : 840
Stream size : 3.54 MiB (0%)
Title : 480p DVD MASTER
Language : Thai
Default : No
Forced : No

Text #3
ID : 6
Format : VobSub
Codec ID : S_VOBSUB
Codec ID/Info : Picture based subtitle format used on DVDs
Duration : 1 h 25 min
Bit rate : 10.5 kb/s
Count of elements : 840
Stream size : 6.42 MiB (0%)
Title : 1080p AS
Language : Thai
Default : No
Forced : No

Text #4
ID : 7
Format : VobSub
Codec ID : S_VOBSUB
Codec ID/Info : Picture based subtitle format used on DVDs
Duration : 1 h 25 min
Bit rate : 10.5 kb/s
Count of elements : 840
Stream size : 6.42 MiB (0%)
Title : 1080p AS Yellow
Language : Thai
Default : No
Forced : No

Text #5
ID : 8
Format : VobSub
Codec ID : S_VOBSUB
Codec ID/Info : Picture based subtitle format used on DVDs
Duration : 1 h 25 min
Bit rate : 9 322 b/s
Count of elements : 840
Stream size : 5.69 MiB (0%)
Title : 1080p TA
Language : Thai
Default : No
Forced : No

Text #6
ID : 9
Format : PGS
Codec ID : S_HDMV/PGS
Codec ID/Info : Picture based subtitle format used on BDs/HD-DVDs
Duration : 1 h 25 min
Bit rate : 48.3 kb/s
Count of elements : 1680
Stream size : 29.5 MiB (1%)
Title : PGS 1080p AS
Language : Thai
Default : No
Forced : No

Text #7
ID : 10
Format : PGS
Codec ID : S_HDMV/PGS
Codec ID/Info : Picture based subtitle format used on BDs/HD-DVDs
Duration : 1 h 25 min
Bit rate : 44.2 kb/s
Count of elements : 1680
Stream size : 27.0 MiB (1%)
Title : PGS 1080p TA
Language : Thai
Default : No
Forced : No

Menu
00:00:00.000 : en:00:00:00.000
00:05:16.274 : en:00:05:16.274
00:09:09.507 : en:00:09:09.507
00:11:51.085 : en:00:11:51.085
00:15:04.945 : en:00:15:04.946
00:17:57.451 : en:00:17:57.451
00:21:57.441 : en:00:21:57.358
00:25:15.430 : en:00:25:15.431
00:29:51.998 : en:00:29:51.999
00:33:25.503 : en:00:33:25.503
00:35:49.522 : en:00:35:49.522
00:39:19.482 : en:00:39:19.482
00:44:15.152 : en:00:44:15.152
00:48:50.093 : en:00:48:48.968
00:54:35.855 : en:00:54:35.731
00:59:02.455 : en:00:59:02.456
01:03:02.195 : en:01:03:02.153
01:06:50.047 : en:01:06:50.048
01:09:41.093 : en:01:09:41.094
01:12:20.711 : en:01:12:20.711
01:14:37.890 : en:01:14:37.848
01:17:39.655 : en:01:17:39.822
01:20:10.472 : en:01:20:10.472
01:24:06.041 : en:01:23:58.700
01:28:04.737 : en:01:28:04.738

DOWNLOAD


PART01 |||| PART02 |||| PART03 |||| PART04

PART01 |||| PART02 |||| PART03 |||| PART04

PART01 |||| PART02 |||| PART03 |||| PART04

PART01 |||| PART02 |||| PART03 |||| PART04


Leave A Reply

Your email address will not be published.

%d bloggers like this: