[MINI Super-HQ] No One Lives (2012) โหด…ล่าเหี้ยม [UNRATED] [1080p] [พากย์ไทย 5.1 + เสียงอังกฤษ DTS] [บรรยายไทย + อังกฤษ] [เสียงไทย + ซับไทย] [ONE2UP]

0

No One Lives (2012) โหด...ล่าเหี้ยม [UNRATED]

โหลดหนัง No One Lives (2012) โหด…ล่าเหี้ยม

No One Lives (2012) 1h 26min | Horror, Thriller | 10 May 2013 (USA) Summary: A gang of ruthless highway killers kidnap a wealthy couple traveling cross country only to shockingly discover that things are not what they seem.
Countries: USA, UKLanguages: English

เรื่องย่อ No One Lives (2012) โหด…ล่าเหี้ยม

เมื่อฝูงหนู…จะสู้กับพญาราชสีห์ คำตอบมีเพียงหนึ่งเดียวนั่นก็คือ..ตายไม่มีเหลือ No One Lives เรื่องราวเริ่มต้นที่การประกาศตามล่าตัวฆาตกรต่อเนื่องสุดอำมหิต ที่มันลงมือฆ่าและชำแหละหญิงสาวอย่างสยดสยอง ขณะเดียวกันกับที่คู่รักหนุ่มสาวคู่หนึ่งได้ออกเดินทางท่องเที่ยวด้วยรถยนต์ส่วนตัวและพ่วงตู้ข้าวของเครื่องใช้ไปด้วย พวกเขามุ่งหน้าเข้าเมืองเล็กๆแห่งหนึ่งเพื่อแวะพักผ่อนและกินข้าว แต่กลับต้องโชคร้ายที่มาเผชิญหน้ากับแก๊งอัธพาลเจ้าถื่นสุดเถื่อนที่มีอาวุธครบมือ พวกมันหมายตาคนทั้งคู่เอาไว้แล้ว หลังจากที่พวกเขาทั้งคู่ออกเดินทางต่อ พวกมันก็บุกจู่โจมคนทั้งคู่แบบไม่ให้ทันตั้งตัวและจับคนทั้งสองคนไปกักขังไว้ในปั๊มน้ำมันหมายว่าจะเรียกค่าไถ่ แต่แล้วพวกมันทุกคนต้องถึงกับตะลึง ! เมื่อพยายามค้นตู้พ่วงเพื่อหาของมีค่า แต่สิ่งที่พวกมันพบกลับเป็นภาพที่ชวนให้สยองจนถึงขีดสุด ภายในตู้พ่วงเต็มไปด้วยเครื่องมือและอุปกรณ์แปลกประหลาดที่ใช้สำหรับการทรมานมากมาย มิหนำซ้ำพวกมันยังพบหญิงสาวคนหนึ่งถูกมัดตรึงเอาไว้กับตู้พ่วงอีกด้วย ผู้ชายที่พวกมันเพิ่งจับตัวมา แท้จริงแล้วมันคือฆาตกรต่อเนื่องสุดอำมหิตที่ทางการกำลังต้องการตัว ชื่อของมันคือ ไดร์เวอร์ ฆาตกรต่อเนื่อง ที่ชื่อชอบในการไล่ล่าแล้วก็ฆ่าเหยื่อของมัน ด้วยอาวุธสุดเจ๋ง จากนั้นก็ชำแหละออกเป็นชิ้นๆอย่างโหดเหี้ยม ตอนนี้มันได้สติแล้วและมันต้องการที่จะทวงหญิงสาวที่เป็นเหยื่อของมันคืนมา เป็นศึกแห่งศักดิ์ศรี ฆาตกรสุดจิต Vs แก๊งอันธพาลสุดโฉด โดยมีสิ่งที่เรียกว่า “เหยื่อ” เป็นเดิมพัน!!

Complete name : [MINI Super-HQ]_No.One.Lives.2013.1080p.BrRip.DTS.x264.One2oadup.com.mkv
Format : Matroska
Format version : Version 4
File size : 3.68 GiB
Duration : 1 h 26 min
Overall bit rate mode : Variable
Overall bit rate : 6 093 kb/s
Movie name : [MINI Super-HQ]_No.One.Lives.2013.1080p.BrRip.DTS.x264.One2oadup.com
Encoded date : UTC 2014-08-14 15:59:41
Writing application : mkvmerge v6.2.0 (‘Promised Land’) built on Apr 28 2013 12:22:01
Writing library : libebml v1.3.0 + libmatroska v1.4.0

Video
ID : 1
Format : AVC
Format/Info : Advanced Video Codec
Format profile : [email protected]
Format settings : CABAC / 4 Ref Frames
Format settings, CABAC : Yes
Format settings, ReFrames : 4 frames
Codec ID : V_MPEG4/ISO/AVC
Duration : 1 h 26 min
Bit rate mode : Variable
Bit rate : 4 900 kb/s
Maximum bit rate : 100.0 Mb/s
Width : 1 920 pixels
Height : 800 pixels
Display aspect ratio : 2.40:1
Frame rate mode : Constant
Frame rate : 23.976 FPS
Color space : YUV
Chroma subsampling : 4:2:0
Bit depth : 8 bits
Scan type : Progressive
Bits/(Pixel*Frame) : 0.133
Stream size : 2.92 GiB (79%)
Title : [MINI Super-HQ]_No.One.Lives.2013.1080p.BrRip.DTS.x264.One2oadup.com
Writing library : x264 core 130 r2273 b3065e6
Encoding settings : cabac=1 / ref=4 / deblock=1:0:0 / analyse=0x3:0x133 / me=umh / subme=10 / psy=1 / psy_rd=1.00:0.10 / mixed_ref=1 / me_range=32 / chroma_me=1 / trellis=2 / 8x8dct=1 / cqm=0 / deadzone=21,11 / fast_pskip=1 / chroma_qp_offset=-3 / threads=16 / lookahead_threads=1 / sliced_threads=0 / nr=0 / decimate=1 / interlaced=0 / bluray_compat=0 / constrained_intra=0 / bframes=3 / b_pyramid=2 / b_adapt=2 / b_bias=0 / direct=3 / weightb=1 / open_gop=0 / weightp=2 / keyint=250 / keyint_min=24 / scenecut=40 / intra_refresh=0 / rc_lookahead=60 / rc=2pass / mbtree=1 / bitrate=4900 / ratetol=1.0 / qcomp=0.60 / qpmin=0 / qpmax=69 / qpstep=4 / cplxblur=20.0 / qblur=0.5 / vbv_maxrate=99999 / vbv_bufsize=99999 / nal_hrd=vbr / ip_ratio=1.40 / aq=1:1.00
Language : English
Default : Yes
Forced : No

Audio #1
ID : 2
Format : AC-3
Format/Info : Audio Coding 3
Commercial name : Dolby Digital
Codec ID : A_AC3
Duration : 1 h 26 min
Bit rate mode : Constant
Bit rate : 384 kb/s
Channel(s) : 6 channels
Channel layout : L R C LFE Ls Rs
Sampling rate : 48.0 kHz
Frame rate : 31.250 FPS (1536 SPF)
Bit depth : 16 bits
Compression mode : Lossy
Delay relative to video : 20 ms
Stream size : 237 MiB (6%)
Title : [THAI AC3 FROM DVD MASTER]
Language : Thai
Service kind : Complete Main
Default : Yes
Forced : No

Audio #2
ID : 3
Format : DTS
Format/Info : Digital Theater Systems
Codec ID : A_DTS
Duration : 1 h 26 min
Bit rate mode : Constant
Bit rate : 755 kb/s
Channel(s) : 6 channels
Channel layout : C L R Ls Rs LFE
Sampling rate : 48.0 kHz
Frame rate : 93.750 FPS (512 SPF)
Bit depth : 24 bits
Compression mode : Lossy
Stream size : 466 MiB (12%)
Title : eng dts
Language : English
Default : No
Forced : No

Text #1
ID : 4
Format : VobSub
Codec ID : S_VOBSUB
Codec ID/Info : Picture based subtitle format used on DVDs
Title : [SUB THAI 480P FROM DVD MASTER] Freesia UPC
Language : Thai
Default : No
Forced : No

Text #2
ID : 5
Format : VobSub
Codec ID : S_VOBSUB
Codec ID/Info : Picture based subtitle format used on DVDs
Title : [SUB THAI 480P FROM DVD MASTER] Angsana UPC
Language : Thai
Default : No
Forced : No

Text #3
ID : 6
Format : VobSub
Codec ID : S_VOBSUB
Codec ID/Info : Picture based subtitle format used on DVDs
Title : [SUB THAI 480P FROM DVD MASTER] Freesia UPC UNDER
Language : Thai
Default : No
Forced : No

Text #4
ID : 7
Format : VobSub
Codec ID : S_VOBSUB
Codec ID/Info : Picture based subtitle format used on DVDs
Title : [SUB THAI 1080P FROM DVD MASTER] TH Sarabun
Language : Thai
Default : No
Forced : No

Text #5
ID : 8
Format : PGS
Codec ID : S_HDMV/PGS
Codec ID/Info : Picture based subtitle format used on BDs/HD-DVDs
Title : THAI PGS TH Sarabun
Language : Thai
Default : No
Forced : No

Text #6
ID : 9
Format : PGS
Codec ID : S_HDMV/PGS
Codec ID/Info : Picture based subtitle format used on BDs/HD-DVDs
Title : THAI PGS TH Sarabun UNDER
Language : Thai
Default : No
Forced : No

Text #7
ID : 10
Format : UTF-8
Codec ID : S_TEXT/UTF8
Codec ID/Info : UTF-8 Plain Text
Title : eng srt
Language : English
Default : No
Forced : No

DOWNLOAD


PART01 |||| PART02 |||| PART03 |||| PART04

PART01 |||| PART02 |||| PART03 |||| PART04

PART01 |||| PART02 |||| PART03 |||| PART04

PART01 |||| PART02 |||| PART03 |||| PART04


Leave A Reply

Your email address will not be published.

%d bloggers like this: